<?xml version="1.0" standalone="no"?>
<!DOCTYPE svg PUBLIC "-//W3C//DTD SVG 1.1//EN" "http://www.w3.org/Graphics/SVG/1.1/DTD/svg11.dtd">
<svg xmlns="http://www.w3.org/2000/svg">
<metadata>Copyright (C) 2025 by original authors @ fontello.com</metadata>
<defs>
<font id="fontello" horiz-adv-x="1000" >
<font-face font-family="fontello" font-weight="400" font-stretch="normal" units-per-em="1000" ascent="850" descent="-150" />
<missing-glyph horiz-adv-x="1000" />
<glyph glyph-name="dragdrop" unicode="&#xe800;" d="M251 685c0-54-45-97-99-97-53 1-97 45-96 99 0 54 45 97 99 96 53 0 97-45 96-98z m-195-671c0 54 44 98 98 98 53 0 97-44 97-97 0-54-43-98-97-99-54 0-98 44-98 98z m333 673c1 55 46 98 100 96 54-1 97-46 95-100-1-53-46-96-100-95-53 2-96 47-95 99z m196-672c0-55-44-99-98-98-54 0-97 44-98 98 0 54 44 98 98 98 54 0 97-44 98-98z m-334 335c0-54-44-98-98-97-53 0-97 43-97 97 0 54 43 97 98 97 54 0 97-43 97-97z m138 0c0 54 44 98 98 98 54 0 97-44 97-98 0-54-44-97-98-97-54 0-97 44-97 97z" horiz-adv-x="640" />

<glyph glyph-name="leftdouble" unicode="&#xe801;" d="M771 351c-5 4-9 6-12 9-99 99-198 198-297 297-18 17-25 38-18 62 13 42 64 55 96 25 21-19 40-40 60-60 96-96 192-192 288-289 29-28 29-62 0-91-115-115-229-229-344-345-24-24-56-27-80-8-26 20-31 57-11 83 3 4 7 8 10 11 99 99 197 197 295 296 3 3 6 5 12 10z m-351-1c-6 4-9 7-12 9-98 99-197 197-296 296-4 4-8 9-11 13-17 24-14 56 6 76 21 20 53 22 76 5 4-3 8-7 11-10 114-114 228-228 342-342 31-31 31-63 0-94-114-114-228-229-343-343-24-24-55-27-79-9-27 20-32 58-11 84 3 4 6 7 10 10 98 99 197 198 296 296 2 3 5 5 11 9z" horiz-adv-x="1000" />

<glyph glyph-name="alert" unicode="&#xe802;" d="M508-80h-16c-1 0-2 0-4 0-61 5-114 47-131 107-1 4-3 5-7 5-50 0-99 0-148 0-35 0-65 21-74 54-1 5-2 10-3 16 0 14 0 28 0 42 0 1 1 3 1 5 3 32 13 61 32 87 13 17 28 31 45 43 11 9 16 20 16 35 0 50 0 101 0 152 0 28 5 57 14 84 36 100 106 162 209 187 3 0 4 2 5 4 7 23 29 39 53 39 24 0 45-16 53-39 1-3 2-4 5-4 48-10 90-31 127-63 64-57 96-129 96-215 0-48 0-97 0-145 0-14 5-25 16-33 3-3 7-5 10-8 35-27 57-62 65-105 1-8 2-16 3-24v-41c0-2-1-3-1-4-2-13-6-25-13-35-16-22-37-32-63-32-50 0-99 0-148 0-4 0-6-2-7-6-18-54-54-88-109-102-8-3-18-3-26-5z m-308 187h600c0 11 0 22 0 32-1 29-13 52-34 71-7 5-14 10-20 16-25 22-39 49-39 82-1 50 0 100 0 149 0 10 0 20-2 29-6 53-29 97-68 131-50 43-107 60-172 48-66-11-114-48-146-106-17-31-24-64-24-98 0-49 0-98 0-147 0-29-9-55-28-76-9-10-20-18-30-27-17-14-29-31-34-53-4-16-1-33-2-51z m236-75c12-24 41-40 70-38 26 2 45 15 59 38h-129z" horiz-adv-x="1000" />

<glyph glyph-name="softwareinventory" unicode="&#xe803;" d="M904 322l-186 97-1 256-6 8-207 92h-6l-192-92c-3-2-5-4-7-7l-1-257-201-96c-2-3-4-6-4-10v-257c0-5 1-9 6-12l207-118h7s188 113 188 113l197-112c4-2 9-2 13 0l190 116c4 2 5 5 7 9v264l-4 6z m-607-362l-179 101v231l77-42 26-15 76-41v-234z m13 255l-76 41c0 0-28 16-28 16l-72 40 176 85 67-34c8-4 19-10 28-15l69-35-164-99z m177-155l-165-100v233l165 97v-230z m1 274l-164 85v231l69-34c8-5 25-13 25-13l70-35v-234z m11 256l-66 33-27 15-67 33 161 78 67-29 31-14c23-12 51-21 74-33 1 0 3-2 2-2l-172-81h-4z m194 61v-232l-180-85v234l180 83z m-2-691l-178 101v230l76-41 26-15 76-41v-234z m13 255l-75 41-28 16-72 39c0 2 0 2 1 2 5 3 12 6 17 9 53 25 106 49 158 75l67-33 28-15 69-36-164-98z m179-154l-167-101v233c2 0 3 1 4 2 55 31 108 65 163 96v-230z" horiz-adv-x="1000" />

<glyph glyph-name="down" unicode="&#xe804;" d="M493 261c4-4 11-4 15 0 13 13 25 25 37 37 95 96 191 191 286 286 24 24 54 30 82 16 40-22 47-74 15-107-40-40-81-80-121-121-86-85-171-171-257-257-23-22-51-28-78-15-7 3-14 8-20 14-127 126-253 252-379 378-18 19-25 41-18 67 7 25 25 41 50 47 21 4 40 0 57-14 3-3 7-7 10-10 107-107 214-214 321-321 0 0 0 0 0 0z" horiz-adv-x="1000" />

<glyph glyph-name="close" unicode="&#xe805;" d="M397 350c-3 3-6 6-8 8-85 85-169 169-254 254-33 33-32 81 2 110 26 24 67 24 94 0 4-3 7-7 11-11 84-83 167-166 250-250 3-3 6-5 9-8 3 3 5 5 8 8 85 85 169 169 254 254 27 27 61 32 91 14 40-23 49-76 19-111-4-4-7-7-11-11-83-83-166-166-250-250-3-3-5-5-8-8 3-3 5-6 8-8 84-84 169-169 253-253 22-22 30-47 22-76-14-51-77-70-117-36-4 4-7 7-11 11l-250 250c-3 3-6 5-8 8-4-3-6-5-9-8-84-85-169-169-254-254-25-26-57-32-87-17-43 22-53 79-22 114 3 4 6 7 10 10 83 83 167 167 250 250 3 3 5 6 8 9l0 1z" horiz-adv-x="1000" />

<glyph glyph-name="listbox" unicode="&#xe806;" d="M940 494c-2-6-3-13-5-19-11-34-40-55-77-55-69 0-138 0-208 0-46 0-81 34-81 80 0 70 0 139 0 209 0 46 35 80 81 80 69 0 139 0 208 0 43 0 75-28 80-71 0-1 1-2 1-3v-221z m-53 111c0 34 0 68 0 103 0 18-11 29-29 29-69 0-137 0-206 0-19 0-29-10-29-29 0-69 0-137 0-206 0-18 11-29 29-29 69 0 137 0 206 0 18 0 29 11 29 29 0 34 0 68 0 103z m-752-695c-9 3-20 4-29 9-30 14-45 39-45 72 0 70 0 140 0 210 0 46 34 80 80 80 70 0 139 0 209 0 46 0 80-35 80-81 0-69 0-139 0-208 0-48-36-78-72-81-1 0-1 0-2-1h-221z m111 53c34 0 68 0 103 0 18 0 29 11 29 29 0 70 0 138 0 207 0 18-11 29-29 29-69 0-138 0-207 0-18 0-29-11-29-29 0-68 0-137 0-206 0-19 11-29 29-30 35 0 69 0 103 0z m398-53c-9 3-19 4-27 8-31 14-47 39-47 73 0 70 0 140 0 209 0 47 34 81 81 81 69 0 138 0 207 0 43 0 75-29 81-71 0-1 1-2 1-3v-222c0-1 0-3-1-4-4-29-19-51-47-63-8-4-18-5-27-7h-221z m243 186c0 34 0 68 0 103 0 19-11 29-30 29-68 0-137 0-205 0-19 0-30-11-30-29 0-68 0-137 0-206 0-19 11-29 30-29 68 0 137 0 205 0 19 0 30 10 30 29 0 35 0 69 0 103z m-456 509c0-35 0-69 0-103 0-31-13-55-40-72-13-8-27-11-42-11-69 0-138 0-207 0-47 0-81 35-81 82 0 69 0 138 0 207 0 47 34 81 81 81 69 0 138 0 207 0 41 0 74-27 81-66 1-6 1-12 1-18 0-34 0-67 0-101z m-317 0c0-35 0-69 0-103 0-19 11-29 29-30 69 0 137 0 206 0 18 0 29 11 29 29 0 69 0 138 0 207 0 18-11 29-29 29-68 0-137 0-206 0-18 0-29-11-29-29 0-35 0-69 0-103z" horiz-adv-x="1000" />

<glyph glyph-name="date" unicode="&#xe807;" d="M672 708c0 13 0 25 0 37 0 18 11 30 27 30 16 0 27-12 27-30 0-12 0-23 0-35 0-1 0-1 1-4 10 0 21 1 31 0 68-4 127-62 131-130 2-28 1-56 1-84 0-139 0-278 0-417 0-59-25-104-76-133-23-13-49-17-75-17-156 0-312 0-469 0-11 0-23 0-34 1-65 6-122 64-126 129-1 27-1 53-1 80 0 141 0 282 0 422 0 32 7 61 26 87 29 41 69 62 119 63 7 0 13 0 20 0 0 14 0 26 0 38 0 18 12 31 27 30 16 0 27-12 27-30 0-12 0-25 0-38h343z m-508-254c0-3 0-6 0-9 0-123 0-247 0-371 0-55 39-95 94-95 162 0 324 0 485 0 56 0 95 40 95 95 0 124 0 248 0 371 0 3 0 6-1 9h-673z m111 198c-9 0-16 0-23 0-41-1-78-29-85-69-5-24-3-49-3-73 0 0 0-1 1-1h672c0 21 0 42 0 63 0 7-3 15-6 23-15 40-56 65-105 57 0-13 0-27 0-40 0-12-8-22-19-26-17-5-34 8-34 27 0 13 0 26 0 39h-343c0-2-1-2-1-3 0-12 0-23 0-35 0-17-11-29-26-29-16 0-27 12-27 29 0 13 0 25 0 38z" horiz-adv-x="1000" />

<glyph glyph-name="rightdouble" unicode="&#xe808;" d="M229 351c6-5 9-7 13-11 98-98 197-197 296-296 17-17 25-38 18-63-12-39-60-54-92-29-4 3-7 6-10 9-114 115-229 229-343 343-29 30-29 63 0 92 115 115 229 229 344 344 24 24 55 27 80 8 25-19 30-56 11-81-4-5-7-9-11-12-99-99-197-198-296-296-3-3-6-5-11-8z m353-2c3-3 7-4 9-7 100-100 199-199 299-299 22-22 26-52 10-77-21-31-63-35-91-9-23 22-45 46-67 68-93 93-186 186-279 279-30 30-30 63 0 93 114 115 228 229 343 343 24 24 55 28 79 10 27-20 32-58 11-84-3-4-6-7-10-11-98-98-197-197-296-296-2-2-6-4-9-6 0-1 0-3 0-4z" horiz-adv-x="1000" />

<glyph glyph-name="delete" unicode="&#xe809;" d="M283 9h434c1 13 2 25 3 38 3 35 6 70 9 104 3 34 5 68 8 101 3 38 7 77 10 115 3 33 5 67 8 101 0 6 1 11 2 17 4 22 24 38 45 36 23-2 40-20 39-44 0-15-2-31-3-46-3-30-5-61-8-91-3-38-6-76-9-115-3-33-6-67-9-100-3-39-6-77-9-116-1-15-3-29-4-43-2-27-19-43-46-43-54 0-108 0-162 0-114 0-229 0-343 0-16 0-29 5-38 17-6 7-8 15-9 24-3 38-6 76-9 114-4 42-7 84-11 126-3 38-6 76-9 114-4 42-7 84-11 126-1 11-2 21-2 32-1 24 17 43 41 45 23 1 42-17 44-40 5-63 11-126 16-190 4-50 8-100 13-150 3-44 7-88 11-132z m4 640c0 3 0 5 0 7 0 25 0 50 0 76-1 25 18 45 45 45 112 0 224 0 336 0 23 0 40-13 45-34 0-4 1-8 1-12 0-25 0-50 0-75 0-2 0-4 0-7 2 0 5 0 7 0 54 0 107 0 161 0 22 0 38-12 44-31 8-28-13-54-43-54-37 0-74 0-111 0-217 0-435 0-652 0-21 0-37 10-44 28-10 28 11 57 42 57 54 0 108 0 162 0 2 0 4 0 7 0z m85 1h256v41h-256v-41z m86-385c0-42 0-85 0-127 0-22-14-39-34-43-27-5-51 14-51 42 0 43 0 85 0 128 0 43 0 86 0 128 0 33 36 53 64 37 15-9 21-22 21-39 0-42 0-84 0-126z m85 0c0 42 0 85 0 127 0 21 13 37 32 42 27 7 53-13 53-41 0-35 0-71 0-107 0-49 0-99 0-149 0-25-19-44-44-43-23 1-41 20-41 44 0 41 0 81 0 121 0 2 0 4 0 6z" horiz-adv-x="1000" />

<glyph glyph-name="navclose" unicode="&#xe80a;" d="M837-104h-674c-1 0-2 0-3 1-65 8-113 61-113 128v650c0 11 1 22 4 32 14 58 65 97 125 97h649c58 0 108-38 124-93 3-8 4-16 5-24v-674c0-1-1-3-1-4-8-50-35-85-81-104-11-4-23-6-35-8v-1z m-418 70h405c34 0 59 25 59 60v648c0 35-25 60-60 60h-405v-768h1z m-71 0v768h-171c-36 0-61-25-61-61v-644c0-37 25-62 61-62h171v-1z m-104 384c17-20 34-39 51-58 3-4 7-7 10-11 13-15 11-37-4-50-14-12-36-11-49 4-27 31-54 62-81 93-12 14-11 32 0 46 27 31 54 61 81 92s35 17 49 4c15-13 17-35 3-50-18-22-37-43-56-64-1-2-3-4-4-6h0z" horiz-adv-x="1000" />

<glyph glyph-name="download" unicode="&#xe80b;" d="M500-46c-102 0-204 0-306 0-62 0-113 40-129 99-3 12-4 24-4 35 0 58 0 115 0 172 0 32 28 54 58 44 18-6 30-23 30-44 0-45 0-90 0-135 0-12 0-24 0-36 0-28 18-46 46-46 98 0 197 0 295 0 105 0 209 0 314 0 11 0 22 2 31 9 12 9 17 22 17 37 0 45 0 89 0 133 0 13 0 27 0 40 0 18 8 31 24 40 15 8 31 7 45-3 13-8 19-21 19-36 0-60 1-119 0-179-1-66-48-119-113-128-7-1-14-2-21-2-102 0-204 0-305 0z m-33 328v6c0 137 0 274 0 411 0 21 10 37 27 44 29 11 60-10 60-41 0-64 0-128 0-192 0-74 0-148 0-223v-6c2 2 4 3 5 5 35 35 70 70 105 105 20 20 49 19 66-1 14-17 14-42-1-59-9-9-18-18-27-27-53-53-106-106-159-159-16-16-38-19-56-8-3 2-6 5-9 7-62 62-123 123-185 185-14 14-17 32-10 49 8 17 24 27 43 26 12 0 22-6 30-14 28-28 56-56 84-84 8-8 17-17 25-25 0 0 1 0 2 0z" horiz-adv-x="1000" />

<glyph glyph-name="duplicate" unicode="&#xe80c;" d="M793-77h-396c-9 1-18 3-26 5-60 13-107 71-107 133 0 16 0 31 0 46 0 6-2 7-7 7-19 0-39-1-58 1-59 6-107 50-121 108-2 8-3 16-5 24 0 133 0 265 0 397 1 5 2 9 3 14 8 55 51 102 106 115 8 2 17 3 25 5 133 0 265 0 397 0 7-1 14-2 21-4 63-12 112-71 112-134 0-15 0-31 0-46 0-5 2-7 7-7 19 0 39 1 58-1 59-6 107-49 121-107 2-8 3-17 5-25v-396c-1-5-2-10-3-14-8-58-54-106-111-117-7-2-14-3-21-4z m-435 332c0-62 0-125 0-188 0-29 20-49 49-49 126 0 251 0 376 0 29 0 50 21 50 50 0 125 0 250 0 376 0 29-20 49-49 49-126 0-251 0-377 0-29 0-49-20-49-49 0-63 0-126 0-189z m285 332c0 3 0 5 0 7 0 14 0 27 0 40 0 29-21 49-49 49-126 0-252 0-377 0-5 0-10 0-14-2-21-5-35-24-35-48 0-106 0-212 0-318 0-20 0-40 0-60 0-26 21-47 48-47 14 0 28 0 42 0 2 0 4 0 6 0 0 3 0 5 0 8 0 75 0 150 0 226 0 9 1 19 3 28 10 64 70 116 135 116 78 0 155 0 233 0 3 0 5 0 9 0z" horiz-adv-x="1000" />

<glyph glyph-name="edit" unicode="&#xe80d;" d="M66 316c0 91 0 183 0 274 0 63 42 112 103 123 6 1 11 2 16 2 64 0 127 0 191 0 19 0 32-9 40-26 8-17 5-33-6-47-10-11-22-16-37-15-58 0-116 0-174 0-33 0-45-12-45-45 0-178 0-356 0-534 0-30 13-42 43-42 179 0 358 0 537 0 22 0 36 9 40 26 1 5 1 10 1 14 0 60 0 120 0 180 0 32 29 54 59 44 17-6 27-18 29-36 1-3 1-6 1-10 0-60 0-121 0-182 0-63-42-112-103-123-7-2-15-2-23-2-182 0-364 0-546 0-64 0-113 41-124 104-2 8-2 17-2 26 0 90 0 181 0 271z m312-149c-4 0-9-1-14-1-26-1-48 18-47 45 2 40 5 81 7 121 1 15 2 31 3 46 1 12 5 22 14 31 117 117 234 234 351 351 29 28 72 32 109 8 7-4 14-9 20-14 28-28 57-56 85-85 24-26 34-56 27-92-3-14-11-27-22-37-117-117-233-234-350-351-9-9-20-13-33-14-50-3-100-6-150-9 0 0 0 0 0 0z m30 91c4 0 7 0 9 0 27 2 54 4 81 5 7 0 12 2 17 8 61 61 123 123 184 184 2 2 4 4 5 5-32 31-63 62-94 93-63-63-128-128-193-192-2-2-3-6-3-9-2-20-3-39-4-59 0-12-1-23-2-35z m345 435c-25-25-51-50-76-74 31-31 62-62 92-92 25 24 51 50 76 75-30 30-62 61-92 91z" horiz-adv-x="1000" />

<glyph glyph-name="info" unicode="&#xe80e;" d="M500 790c243 0 440-196 440-439 1-243-197-441-440-441-242 0-439 197-440 440 0 242 197 440 440 440z m363-440c0 200-162 363-362 363-200 0-363-163-363-362 0-200 163-364 363-364 200 0 363 164 363 364z m-401-177c0 2 0 4 0 6 0 61 0 122 0 183 0 6-2 7-7 7-14 0-27-1-40 0-27 1-44 30-32 54 6 14 18 22 34 22 27 0 55 0 82 0 24 0 40-16 40-40 0-46 0-93 0-139 0-29 0-58 0-87 0-2 0-4 0-6 2 0 4 0 6 0 14 0 28 0 42-1 21-2 35-20 34-39-1-21-17-37-38-37-55 0-109 0-164 0-22 0-39 17-39 38 0 21 16 38 38 39 13 0 25 0 38 0 2 0 3 0 6 0z m39 452c35 0 64-28 64-64 0-36-29-65-65-65-36 0-64 29-64 65 0 36 29 64 64 64z" horiz-adv-x="1000" />

<glyph glyph-name="add-circle" unicode="&#xe80f;" d="M474 771c17 0 35 0 52 0 2 0 4-1 7-2 64-5 124-23 179-56 110-66 178-163 202-290 3-16 5-31 7-46v-53c0-2-1-4-2-6-5-65-23-126-58-182-67-109-163-177-289-200-15-3-30-5-46-7h-52c-11 2-21 3-31 4-85 12-159 46-222 103-73 65-118 145-135 241-3 15-5 31-7 47 0 17 0 35 0 52 2 11 3 21 4 31 14 92 52 172 118 238 63 64 138 104 227 119 15 3 31 5 46 7z m377-421c0 193-157 350-350 350-194 0-351-157-351-350 0-194 158-351 351-351 193 0 350 158 350 351z m-386 35c0 7 0 12 0 18 0 41 0 82 0 123 0 15 10 28 24 33 15 4 31 0 39-13 4-7 7-15 7-23 0-42 0-85 0-127 0-3 0-6 0-11 4 0 7 0 10 0 43 0 87 0 130 0 25 0 42-24 33-47-6-14-18-23-35-23-43 0-86 0-128 0-3 0-6 0-10 0 0-3 0-6 0-9 0-43 0-87 0-130 0-25-22-42-46-34-14 5-24 17-24 34 0 43 0 86 0 129 0 3 0 6 0 10-4 0-7 0-10 0-43 0-87 0-130 0-24 0-41 23-33 46 5 15 17 24 34 24 43 0 86 0 128 0 3 0 7 0 11 0z" horiz-adv-x="1000" />

<glyph glyph-name="navopen" unicode="&#xe810;" d="M47 9v683c0 1 1 3 1 4 6 34 23 61 50 81 18 14 39 20 60 25h684c2 0 3-1 5-1 34-6 61-24 82-52 13-18 19-37 24-58v-682c0-1-1-2-1-3-7-54-56-109-133-109-181 1-361 0-542 0s-71-1-107 0c-40 1-73 18-98 50-14 18-21 39-26 61v1z m373-42h401c39 0 63 24 63 64v639c0 39-24 63-64 63h-400v-765z m-71 1v765h-167c-43 0-65-23-65-66v-642c0-29 21-53 50-57h182z m-116 382c-21 24-41 47-61 69-9 11-12 24-6 37 5 12 14 20 28 21 11 2 22-1 29-10 28-32 56-63 83-95 11-14 11-31 0-44-27-31-54-63-82-94-14-14-35-15-49-2-15 13-16 33-3 49 20 23 40 46 61 70h-1z" horiz-adv-x="1000" />

<glyph glyph-name="left" unicode="&#xe811;" d="M589 343c4 4 5 11 0 15-13 13-25 25-37 37-95 95-191 191-286 286-24 24-30 54-15 82 21 40 73 47 106 15 41-40 81-81 121-121 86-86 171-171 257-257 23-23 29-51 16-78-4-7-9-14-15-20-126-127-252-253-378-379-18-19-41-26-66-18-25 7-41 24-47 50-5 21 0 40 14 57 3 3 6 7 9 10 107 107 214 214 321 321 0 0 0 0 0 0z" horiz-adv-x="1000" />

<glyph glyph-name="play" unicode="&#xe812;" d="M165 350c0 116 1 231 2 346 0 44 29 79 72 87 23 5 44 0 63-13 137-98 275-195 412-292 29-21 58-41 87-61 50-35 49-109-1-143-45-31-91-62-136-93-123-85-246-169-369-254-32-22-78-16-107 13-17 18-25 39-25 64 0 51 1 102 1 153 0 64 0 128 0 193 0 0 1 0 1 0z" horiz-adv-x="1000" />

<glyph glyph-name="light" unicode="&#xe813;" d="M56 357c0 2 1 4 2 6 5 15 18 24 34 24 38 0 75 0 113 0 21 0 36-16 37-36 0-21-16-37-37-38-38 0-75 0-113 0-18 0-31 12-36 28 0 1 0 2-1 2 0 5 0 10 0 14z m889-14c0 0-1-1-1-2-5-17-18-28-36-28-37 0-75 0-112 0-21 0-37 17-37 38 0 20 17 36 38 36 37 0 74 0 111 0 18 0 32-11 36-28 0 0 1-1 1-2v-14z m-452-437c-4 1-8 3-12 5-12 7-18 18-18 31 0 38 0 76 0 113 0 20 15 35 33 37 19 2 35-10 40-28 1-4 1-8 1-11 0-36 0-72 0-108 0-20-10-33-29-38 0 0-1 0-1-1h-14z m7 222c-122 0-222 99-222 221 0 122 99 222 222 223 122 0 222-100 222-222 0-123-99-222-222-222z m-148 222c0-82 66-148 148-148 83 0 149 66 149 148 0 82-66 148-148 148-82 0-148-65-149-147z m111 351c0 19 0 37 0 55 0 18 12 33 28 37 24 6 46-11 46-37 0-26 0-51 0-77 0-11 0-22 0-33 0-22-16-38-37-38-21 0-37 17-37 38 0 18 0 37 0 55z m250-179c-19 0-32 9-38 22-6 15-3 29 8 40 21 22 42 43 63 64 6 5 11 11 17 16 15 14 38 14 52 0 15-15 15-38 0-52-26-27-53-53-79-80-7-7-16-10-22-10z m-385 40c0-18-9-32-22-38-14-6-30-3-41 8-21 21-42 42-63 63-6 6-11 11-16 16-15 15-15 38 0 52 14 15 37 15 52 0 27-26 53-53 80-80 7-7 10-15 10-21z m-153-498c0 8 3 17 10 24 27 26 53 53 80 79 12 11 27 14 41 8 14-6 23-20 22-35 0-10-4-18-10-25-27-27-53-53-80-80-11-11-27-13-41-7-13 6-22 19-22 36z m651-3c-1-15-8-27-23-33-14-6-28-4-40 7-27 27-54 54-81 81-14 15-14 37 1 51 14 15 37 15 51 1 18-18 36-35 53-53 9-9 18-18 28-27 7-8 11-16 11-28z" horiz-adv-x="1000" />

<glyph glyph-name="reports" unicode="&#xe814;" d="M673 796c6-2 13-4 18-9 45-45 93-89 137-136 6-10 6-18 6-29 1-226-1-451 0-677-4-22-22-40-44-41h-581c-23 2-41 21-43 45v802c2 22 20 42 42 45h465z m-24-38h-438c-2 0-7-4-7-7v-800c0-6 6-10 11-10h574c3 1 9 7 9 10v659h-135c-5 0-14 11-14 16v132z m131-111l-94 93v-93h94z m-341-1h10c129-4 207-147 136-258s-207-102-276-7c-78 109-2 260 130 265z m131-202l-125 16c-13 1-23 13-17 26l61 113c0 2-7 4-9 4-128 39-223-127-124-220 72-66 188-32 214 60z m4 37c0 26-9 52-24 73s-19 24-26 28-2 0-3 0l-47-89 100-12z m80-168c32 2 60-4 67-40v-221c-4-18-19-34-38-36-33-3-67 0-73 38v221c4 22 21 36 44 38z m0-37c-4-1-7-4-7-8v-208c0-3 3-6 6-7s21 0 25 0 6 4 6 8v208c-1 3-3 6-7 7s-20 1-24 0z m-155-38c34 5 68-2 74-41-2-46 3-94 0-139-3-41-41-46-75-42-18 2-35 20-37 39v144c3 19 19 37 38 39z m6-36c-3-1-7-4-7-7v-136c0-3 3-5 5-6 4-1 21 0 25 0s7 3 7 7v136c-1 4-4 6-8 6s-18 1-22 0z m-149-1c32 3 60-3 68-38v-111c-4-18-19-34-37-36-38-4-72 2-75 46s-1 65 0 92 17 45 44 47z m-4-146c1-1 4-2 5-2 5-1 19-1 24 0s5 3 6 6v96c0 5-2 8-6 9s-22 1-25 0-5-4-6-6v-97c0-2 1-5 2-6z" horiz-adv-x="1000" />

<glyph glyph-name="search" unicode="&#xe815;" d="M708 185c4-2 8-5 12-8 55-55 111-110 166-166 22-22 23-52 3-73-20-21-51-21-73 1-37 36-74 74-110 110-25 25-49 49-74 74-104-57-211-67-320-21-80 34-139 91-178 168-76 152-30 341 107 440 141 103 332 89 455-31 129-125 149-345 12-493z m-7 241c0 139-112 251-251 252-139 0-252-113-252-252 0-138 113-251 252-251 139 0 252 112 252 252z" horiz-adv-x="1000" />

<glyph glyph-name="right" unicode="&#xe816;" d="M411 357c-4-4-4-10 0-14 13-13 25-25 37-37 96-96 191-191 286-286 24-25 30-55 16-83-22-40-74-47-107-15-40 40-80 81-121 122-85 85-171 171-257 257-22 22-28 51-15 77 3 8 8 15 14 21 126 126 252 252 378 378 19 19 41 26 67 18 25-7 41-24 47-50 4-21 0-40-14-56-3-4-7-7-10-11-107-107-214-214-321-321 0 0 0 0 0 0z" horiz-adv-x="1000" />

<glyph glyph-name="settings" unicode="&#xe817;" d="M944 208c0-17-5-33-13-47-17-28-33-57-50-85-25-42-71-58-116-40-18 6-35 14-52 20-4 2-9 1-13-1-14-7-28-15-42-24-4-2-7-7-7-10-4-20-6-40-9-59-8-42-40-73-82-75-40-3-79-3-119 0-45 3-78 37-84 83-2 17-4 35-7 52-1 3-4 7-7 9-14 8-28 16-43 24-3 2-9 2-13 1-23-8-46-20-70-25-38-9-71 5-92 38-21 32-40 65-58 99-20 36-10 82 22 109 16 13 32 25 48 38 3 3 5 8 5 12 1 16 1 32 0 47 0 4-2 9-5 11-14 12-28 22-42 34-40 31-49 79-24 122 16 28 32 56 48 83 26 43 71 59 117 41 17-6 34-14 51-20 4-1 10 0 13 1 15 8 29 16 43 24 3 2 6 6 6 9 4 20 6 39 9 58 8 43 39 73 82 76 40 3 80 3 120 0 45-3 77-37 83-82 3-18 5-35 8-53 1-3 4-7 6-8 14-9 29-17 44-25 3-2 8-2 12-1 17 6 34 13 50 20 47 18 93 3 119-40 16-28 32-55 48-83 25-44 16-92-24-123-14-11-28-22-42-33-3-2-5-7-5-11-1-16-1-32 0-48 0-3 2-8 4-10 15-12 30-23 44-35 24-19 36-43 37-73z m-133-124c13 1 21 6 26 16 16 28 33 56 49 84 11 18 9 29-8 42-24 19-49 38-73 57-5 4-7 8-5 14 7 36 7 71 0 107-1 7 0 10 5 14 25 19 49 38 74 57 16 12 18 24 8 41-16 28-32 55-48 82-10 18-21 22-40 14-29-11-58-23-87-35-6-2-9-1-14 3-28 24-60 42-95 54-5 2-8 4-8 10-5 32-9 64-14 95-2 17-12 26-29 26-33 0-67 0-101 0-17 0-27-9-29-27-5-31-10-62-14-94-1-6-3-8-9-10-34-12-66-30-94-54-5-5-9-5-15-3-29 12-58 24-87 35-18 7-30 3-40-14-16-28-32-55-48-82-10-18-8-29 8-42 25-19 50-38 75-57 4-4 6-7 5-13-7-36-7-73 0-109 1-6 0-9-5-13-25-19-49-38-74-57-17-13-19-24-8-42 16-27 32-54 48-82 10-17 21-21 39-13 30 11 59 23 88 34 4 2 10 1 13-1 29-24 61-43 97-56 3-1 6-5 7-9 5-31 10-63 14-95 3-17 12-26 30-26 33 0 66 0 100 0 18 0 27 9 30 27 4 31 9 63 13 94 1 6 4 8 9 10 35 12 67 30 95 54 5 4 9 5 14 3 29-12 57-23 85-34 5-2 10-4 14-5z m-310 458c106 0 192-86 192-192 0-107-87-192-193-192-107 0-192 86-192 193 0 106 86 191 193 191z m0-56c-75 0-136-60-136-135 0-75 60-136 135-136 75 0 136 60 136 135 0 75-60 136-135 136z" horiz-adv-x="1000" />

<glyph glyph-name="false-positive" unicode="&#xe818;" d="M494 797c4 0 7 1 11 0l361-163c11-6 17-15 18-28 5-61 0-150-11-210-40-216-175-354-345-480-15-12-26-20-45-8-71 62-151 116-212 188-92 108-147 248-153 390-2 34-4 90 0 122s5 17 13 23l363 166z m325-212l-318 144-320-144c-9-144 21-284 104-403 58-83 137-140 214-205 96 75 187 147 247 256 60 109 80 228 73 352z m-421-171c9 1 17 0 24-5l77-76 80 77c31 16 61-15 44-45l-77-77 78-80c16-31-16-61-46-44l-77 77-80-78c-30-16-61 16-43 46l76 77-78 82c-9 18 2 42 22 46z m255 191c29 5 48-23 34-48l-167-168c-11-9-27-9-39-1-27 35-76 68-101 102s13 66 44 46l77-76 139 139c4 3 9 5 14 6z" horiz-adv-x="1000" />

<glyph glyph-name="up" unicode="&#xe819;" d="M507 439c-4 4-10 5-14 0-13-13-25-25-37-37-96-95-191-191-286-286-24-24-55-30-82-15-40 21-48 73-15 106 40 41 80 81 121 121 85 86 171 171 257 257 22 23 51 29 77 16 8-4 15-9 21-15 126-126 252-252 378-378 19-18 26-41 18-66-7-25-24-41-50-47-21-5-40 0-56 14-4 3-7 6-11 9-107 107-214 214-321 321 0 0 0 0 0 0z" horiz-adv-x="1000" />

<glyph glyph-name="settingsadvancedconfigurations" unicode="&#xe81a;" d="M208 249v38c0 12 0 24 0 37 0 6-2 9-9 9-28 0-56 0-84 0-4 0-8-4-11-7-11-12-27-17-41-12-15 5-26 18-27 34-1 15 8 29 22 36 17 9 38 3 49-14 2-3 5-7 8-7 30 0 59 0 89 0s2 1 3 1v84h-11c-22 0-43 0-64 0-13 0-24 0-34-12-14-16-40-11-54 6-13 16-10 40 7 53 17 13 42 10 53-8 5-7 11-9 19-9 24 0 49 0 74 0 8 0 10 3 10 11 0 44 0 89 0 133 0 18 4 22 22 22h138c0 4 1 7 1 11 0 25 0 51 0 77 0 6-2 10-7 14-13 11-18 28-12 43 6 15 22 25 37 25 17-1 31-12 35-28 5-16-2-33-17-43-2-2-6-5-6-8 0-30 0-60 0-91h85v31c0 20 0 39 0 58 0 4-2 9-5 11-14 12-19 29-13 44 6 16 21 26 37 25 17-1 31-12 35-28 4-17-2-33-18-43-2-2-6-5-6-8 0-30 0-59 0-89 0 0 1-1 1-2 1 0 3 0 5 0h78c0 3 1 5 1 8 0 27 0 55 0 82 0 4-3 8-6 11-13 11-18 29-12 45 6 14 23 24 38 23 17-1 31-14 35-31 3-15-4-30-18-39-3-2-6-6-6-9 0-29 0-58 0-87 0-1 0-2 1-4h143c15 0 20-4 20-19 0-45 0-89 0-134 0-8 2-11 10-11 27 0 54 0 80 0 4 0 9 3 11 6 12 15 28 21 45 15 15-5 25-20 25-36s-11-31-27-36c-16-5-32 1-43 16-2 2-5 5-8 5-30 0-60 0-90 0s-2-1-3-1v-84h62c5 0 10 0 15 0 12 0 22 0 30 12 13 16 40 15 54 0 15-16 14-41-2-55-16-14-41-13-55 4-5 7-10 9-19 9-25 0-51 0-76 0s-9 0-9-7c0-24 0-48 0-73s1-2 1-5h74c12 0 23-1 33 12 13 17 40 14 54-2 14-16 12-40-4-54-16-14-41-12-54 6-5 7-10 8-17 8-25 0-49 0-73 0s-13 0-13-13v-128c0-16-5-21-21-21h-141v-13c0-26 0-52 0-78 0-6 1-9 6-13 15-10 20-27 14-43-5-15-20-26-36-26-16 0-31 11-36 27-5 16 1 32 15 43 2 2 6 5 6 8 0 31 0 63 0 95h-85v-31c0-19 0-40 0-59 0-6 2-10 7-14 13-10 18-24 14-40-3-15-14-25-29-28-16-3-29 3-38 15-13 17-9 41 9 53 5 4 7 8 7 14 0 30 0 60 0 90h-84c0-2-1-5-1-7 0-28 0-56 0-84 0-4 3-9 6-12 13-10 19-26 14-42s-19-27-36-27c-16 0-31 10-36 25-5 16 0 33 14 44 3 2 7 6 7 9 0 30 0 60 0 89s0 3-1 6h-140c-16 0-21 5-21 20 0 42 0 84 0 126v13h-31c-20 0-40 0-60 0-4 0-9-3-12-6-12-14-28-18-44-12-15 6-25 22-24 38 1 16 13 30 29 34 16 4 32-2 41-17 2-3 6-6 9-6 29 0 59 0 88 0 0-1 1 0 3 0z m553-159v523h-522v-523h523z m-676 145c-5 3-8 7-10 7-3 0-6-4-8-6 2-3 5-7 8-8 2-1 5 3 10 7z m842-11c3 5 7 8 6 11 0 3-4 5-7 7-2-3-6-5-7-8 0-2 4-5 8-10z m-542-290c-4-5-8-8-7-10 0-3 4-6 6-8 3 2 7 4 8 7 1 3-3 6-7 11z m241-10c-5 3-8 7-11 7-3-1-5-5-8-8 3-3 6-7 8-7 3 0 6 4 11 7z m-541 541c-5 3-8 7-11 7-3 0-7-5-7-7s5-7 7-7c3 0 6 3 11 7z m852-1c-5 4-8 8-11 8-3 0-5-4-8-7 3-3 5-7 8-8 2 0 6 4 11 7z m-541 312c-5 4-9 7-11 7-3 0-5-5-8-8 3-2 5-6 8-7 3 0 6 4 11 8z m104-12c4 6 7 9 7 11 0 3-5 5-7 8-3-3-7-5-7-8 0-2 3-6 7-11z m126 11c-5 4-8 8-11 7s-5-4-8-7c3-2 5-7 8-7 2 0 6 3 11 7z m-115-852c-5 4-8 8-11 8s-7-5-7-7c0-3 4-7 7-8 3 0 6 3 12 7z m426 427c-5 3-9 7-11 7-3 0-5-5-8-7 2-3 5-7 8-7 3 0 6 3 11 7z m-864 11c-3-6-7-9-6-11 1-3 5-7 8-7 2 0 6 5 6 8 0 3-4 5-8 11z m572-10v-124c0-16-4-21-20-21h-250c-15 0-20 5-20 20v250c0 15 5 20 20 20h250c16 0 20-5 20-21 0-42 0-83 0-125z m-259-114h228v229h-228v-229z" horiz-adv-x="1000" />

<glyph glyph-name="upload" unicode="&#xe81b;" d="M500-41c-101 0-202 0-303 0-60 0-112 39-127 97-3 11-4 23-4 35 0 56 0 113 0 170 0 31 28 53 57 43 18-6 30-22 30-43 0-45 0-89 0-134 0-12 0-23 0-35 0-28 18-46 46-46 97 0 194 0 291 0 104 0 207 0 311 0 11 0 21 2 30 9 12 9 17 21 17 37 0 44 0 87 0 131 0 13 0 26 0 39 0 18 8 31 23 40 15 7 30 7 44-3 13-8 20-21 20-36 0-59 1-117 0-176-1-65-48-117-112-127-7-1-14-1-21-1-101 0-201 0-302 0z m-34 633c-1-1-2-3-4-4-34-35-69-70-104-104-16-17-39-19-57-6-21 15-24 44-8 63 2 2 3 4 5 5 60 60 120 120 180 181 16 15 35 19 53 9 4-2 9-6 12-9 61-60 121-121 182-181 25-25 14-65-17-74-17-5-32-1-44 11-28 27-55 55-82 82-9 9-18 17-28 27v-7c0-135 0-271 0-407 0-23-13-40-34-44-26-6-52 14-52 40-1 50 0 99 0 149 0 88 0 176 0 263 0 2 0 3 0 5-1 0-1 0-2 1z" horiz-adv-x="1000" />

<glyph glyph-name="useractivities" unicode="&#xe81c;" d="M855 349v-379c0-53-33-87-85-87h-539c-52 0-86 34-86 86v676c0 6 4 15 8 19 56 49 113 98 170 147 4 4 12 6 18 6h429c52 0 85-34 85-87v-381 1z m-481 431c-17 2-30 1-43-11-46-41-93-81-139-121-7-5-9-11-9-20v-659c0-31 17-49 48-49h538c31 0 48 18 48 50v758c0 37-16 53-53 53h-336c-5 0-10 0-17-1v-202h-134c0 8 1 14 0 21-2 14 3 17 16 17 27-1 53 0 81 0v164z m126-669h173c6 0 13-1 17-4 4-4 8-12 7-17-1-5-7-11-12-15-4-2-10-2-15-2h-345c-14 1-22 9-22 19s9 18 22 18h175z m0 227h-181c-11 1-16 8-16 18s5 17 16 18h361c11-1 16-8 17-18 1-9-6-17-17-19-4 0-9 0-14 0h-166z m-1-95h174c6 0 14-2 18-6 4-3 6-12 5-17-2-5-8-10-14-13-3-2-9-1-14-1h-344c-13 1-21 8-21 19s8 18 22 18h174z" horiz-adv-x="1000" />

<glyph glyph-name="add" unicode="&#xe81d;" d="M430 420c0 14 0 25 0 36 0 82 0 165 0 247 0 32 20 57 48 66 29 10 62 1 78-25 8-13 13-31 14-47 1-85 0-170 0-254 0-7 0-13 0-22 8 0 15 0 21 0 87 0 174 0 261 0 51 0 84-49 66-95-11-29-36-45-70-45-86 0-171 0-257 0-6 0-12 0-20 0 0-8-1-13-1-19 0-87 0-174 0-261 0-52-45-85-92-70-29 10-48 36-48 70 0 87 0 173 0 259 0 6 0 12 0 21-8 0-14 0-20 0-87 0-174 0-261 0-50 0-83 46-68 92 10 29 36 48 70 48 86 0 171 0 257 0 7 0 13 0 22 0z" horiz-adv-x="1000" />

<glyph glyph-name="vulnerabilities" unicode="&#xe81e;" d="M482 814c17-3 35-5 52-9 133-30 232-138 252-273 2-16 3-33 3-50 0-88 1-175 0-262-1-103-46-181-138-229-150-78-335 17-361 184-2 14-3 29-3 44 0 87 0 175 0 262 0 86 54 155 136 174 97 22 195-45 209-144 1-10 2-19 2-29 0-88 0-177 0-265 0-52-33-90-84-98-54-9-107 35-108 89-1 72 0 143 0 215 0 18 0 37 0 55 0 17 6 26 18 26 13 0 19-9 19-25 0-88 0-176 0-264 0-29 20-53 49-58 35-6 67 21 68 56 0 25 0 49 0 74 0 65 0 131 0 196 0 75-54 132-129 138-71 5-138-53-142-124-1-29 0-58 0-88 0-69-2-138 0-206 3-93 73-175 164-196 120-27 236 49 258 171 2 10 3 20 3 30 0 96 2 191 0 287-2 129-94 242-219 272-100 23-189 0-265-67-14-12-31-8-35 6-2 9 1 15 8 21 44 41 95 67 154 79 15 3 30 5 46 8 14 0 29 0 43 0z m36-928c-15 2-31 4-46 7-138 28-242 141-260 280-2 13-2 27-3 40 0 12 8 21 19 21 11 0 19-9 19-21 0-43 9-85 28-123 47-93 121-148 223-163 70-11 136 2 195 42 20 13 37 33 55 50 6 5 12 10 21 8 14-4 19-20 9-32-44-50-96-85-161-100-18-4-35-6-53-9h-47z m194 465c0-46 0-92 0-137-1-82-56-149-135-168-100-24-201 47-211 149-1 9-2 18-2 27 0 87 0 174 0 262 0 58 46 102 102 98 52-3 90-44 91-99 0-65 0-131 0-196 0-14-8-23-20-23-11 0-19 9-19 23 0 65 0 131 0 196 0 28-14 50-39 58-38 14-77-14-77-57 0-43 0-86 0-129 0-46 0-92 0-138 0-68 46-123 113-135 74-14 149 42 157 118 1 6 2 13 2 20 0 88 0 176 0 264 0 104-69 189-169 211-116 26-234-53-254-170-2-13-3-27-3-40 0-37 0-75 0-112 0-15-13-25-26-20-7 3-12 8-12 16 0 50-3 100 3 149 12 99 68 169 162 204 143 53 296-31 330-180 5-19 6-39 7-58 1-44 0-88 0-132z m-484 318c0-11-9-19-19-19-11 0-19 9-19 19 0 11 9 19 20 19 10 0 18-9 18-19z m-18-376c0 10 8 19 19 18 10 0 19-9 18-19 0-10-9-18-19-18-10 0-18 8-18 19z m328-97c-11 0-19 9-19 19 0 11 8 19 19 19 10 0 19-8 19-19 0-10-8-18-19-18z m253-156c-10 0-19 9-18 19 0 11 9 19 19 19 10 0 19-9 18-19 0-10-8-18-19-18z" horiz-adv-x="1000" />

<glyph glyph-name="warning" unicode="&#xe81f;" d="M500-67c-119 0-238 0-357 0-22 0-42 4-61 16-33 20-47 57-36 96 3 10 7 21 13 30 120 212 240 425 361 637 10 19 24 35 43 45 33 17 70 11 97-16 8-9 15-19 21-29 121-212 241-424 361-637 9-15 15-32 16-50 2-40-20-71-57-84-14-5-29-7-43-7-119 0-238 0-357 0z m0 84c120 0 240 0 359 0 4 0 8 0 11 0 5 0 6 2 4 7-1 3-3 6-4 9-122 214-243 429-365 643-1 3-3 4-5 7-2-2-4-4-5-7-40-70-80-140-120-210-82-145-164-290-246-435-1-2-3-5-4-8-1-3 0-5 4-5 4 0 8 0 12 0 119 0 239 0 359 0z m-41 333c0 34 0 69 0 103 0 20 12 37 31 42 28 7 52-14 52-43 0-45 0-91 0-136 0-23 0-45 0-68 0-21-12-37-31-42-27-7-52 12-52 41 0 30 0 59 0 88 0 5 0 10 0 15z m41-270c-23 0-41 18-41 41 0 23 18 42 41 42 23 0 42-19 42-42 0-23-18-42-42-42z" horiz-adv-x="1000" />

<glyph glyph-name="time" unicode="&#xe820;" d="M937 423c-6 38-17 75-33 110-38 82-95 147-172 195-52 32-108 53-169 60-10 1-20 0-30 2h-67c-1-1-3-1-5-1-26 0-51-4-76-11-81-23-151-65-209-127-55-59-90-128-108-206-5-19-5-39-7-59v-71c2-12 1-25 3-38 6-43 20-85 40-124 27-55 64-101 110-140 61-53 131-85 210-100 14-2 28-1 42-4h67c1 1 2 1 3 1 23 0 46 3 68 9 73 18 138 52 194 103 44 41 79 88 104 143 19 40 32 81 36 125 1 8 0 17 2 26v67c-2 14-1 27-3 40z m-437-440c-202 0-367 165-366 368 0 203 164 366 366 366 203 0 367-165 367-367 0-203-164-367-367-367z m37 488c0-32 0-63 0-95 0-7 2-12 7-18 30-30 61-60 91-91 10-10 14-22 10-37-4-14-14-22-28-25-12-3-24 0-33 9-37 37-74 74-110 111-7 7-10 15-10 25 0 73 0 147 0 221 0 21 16 36 36 36 20 0 36-16 36-36 0-33 0-67 0-100h0z" horiz-adv-x="1000" />

<glyph glyph-name="success" unicode="&#xe821;" d="M500 811c254 0 460-205 461-461 0-253-206-461-459-461-256 0-462 206-463 461 0 255 205 460 460 461z m378-461c0 208-168 377-377 378-208 1-378-169-378-378 0-208 168-377 377-378 208-1 378 170 378 378z m-614-10c0 2 1 3 2 5 11 23 42 28 60 8 23-26 46-51 69-77 8-9 16-18 24-27 1 0 1 1 2 2 84 93 169 186 253 278 9 9 19 14 31 14 0 0 0 0 1 0 2-1 5-1 8-2 0 0 0 0 1 0 14-5 23-18 24-32 0-2 0-4 0-5l-2-8s0 0 0-1c-1-5-5-10-8-14-79-86-157-172-235-258-16-17-31-34-47-51-6-7-14-12-24-13-2 0-4 0-7 0l-8 2s0 0 0 0c-7 2-12 6-16 11-17 18-33 36-49 55-23 26-47 52-70 78-5 6-9 13-9 21 0 2 0 4 0 7 0 2 1 5 1 8z" horiz-adv-x="1000" />

<glyph glyph-name="dashboard" unicode="&#xe822;" d="M362 798h-202c-62 0-106-44-106-106v-311c0-63 43-106 106-106h202c63 0 105 43 105 106v311c0 63-42 106-105 106z m69-413c0-40-33-73-74-73h-193c-41 0-74 33-74 73v303c0 40 33 73 74 73h193c41 0 74-33 74-73v-303z m-62-177c-72 2-144 1-216 0-52-1-93-37-98-89-3-42-3-84 0-126 5-53 47-89 100-90h105c36 0 71-1 106 0 58 1 101 44 101 102v102c-1 57-42 100-98 101z m62-194c0-41-33-74-74-74h-193c-41 0-74 33-74 74v85c0 40 33 73 74 73h193c41 0 74-33 74-73v-85z m408 783h-197c-66 0-108-42-108-108v-677c0-67 42-109 108-109h197c66 0 108 43 108 109v677c0 66-42 108-108 108z m72-783c0-41-33-74-73-74h-194c-40 0-73 33-73 74v673c0 41 33 74 73 74h194c40 0 73-33 73-74v-674z" horiz-adv-x="1000" />

<glyph glyph-name="devices" unicode="&#xe823;" d="M98 233c-20 3-37 23-38 43v413c2 24 19 41 43 43h503c23-3 39-20 41-43 8-84-5-179 0-264-2-21-27-21-29 0v264c0 5-3 10-8 12l-504 2c-5 1-16-6-16-10v-371h252c5 0 12-9 12-14s-6-16-12-16h-252c0-12-3-26 12-29h234c32-5 16-36-12-29 0-30 5-63-14-88h32s7-4 7-4c9-9 3-24-9-25-36-5-81 3-117 0-19 1-21 26-2 29s34-3 49 4 25 22 25 32v52h-197v-1h0z m779-216c-9-9-25-1-25 12l-1 314c-3 5-8 8-14 8l-416-1c-5-2-9-7-9-13v-310c-2-17-25-18-28-3l-1 313c1 19 13 35 31 40 141 6 283 0 425 3 19-2 35-13 40-31 6-106 1-213 3-319 0-3-2-10-5-13h0z m-528-8c2-2 3-8 5-11h556c4 21 30 19 30-3s-14-26-27-26h-561c-17 0-31 16-27 33s17 14 24 7h0z" horiz-adv-x="1000" />

<glyph glyph-name="adapters" unicode="&#xe824;" d="M290 725c-279-156-295-556-29-733 16-11 76-45 92-45s27 17 18 31c-6 9-47 25-61 33-217 120-267 415-99 600 174 191 483 163 618-56 157-252-17-576-309-593v184c8 5 20 5 30 8 49 16 111 78 111 132v132c19-2 57-1 48 28-1 4-11 14-14 14h-90v111c0 2 0 9-12 14-11 5-30-4-30-16v-109h-127v109c0 12-19 21-30 16-2-1-12-12-12-14v-111h-90c-3 0-10 0-14-14-7-29 29-30 48-28v-1c0 0 0-132 0-132 0-53 61-115 110-131 6-2 29-6 31-9v-187c-3 0-6 0-9 0-16 0-59 9-69 4-15-7-14-27 0-35 2-2 15-6 27-7 26-3 61-4 74-4 16 1 31 2 46 5 173 18 325 153 368 320 92 366-296 669-626 484z m88-430v125h243v-125c0-56-58-106-116-109s-127 49-127 109z m178 10c-10 3-103 3-113 0-19-4-19-35 0-39 12-2 90-3 111 0 21 3 21 35 2 39z m-113 38c12-2 89-3 111 0 22 4 20 35 2 39h-113c-18-4-20-34 0-39z" horiz-adv-x="1000" />

<glyph glyph-name="licensemanagement" unicode="&#xe825;" d="M40 799c4 9 10 11 20 11 236 0 473 0 710 0 13 0 18-5 18-18 0-122 0-244 0-366 0-3-1-7-2-11-3-5-10-8-16-6-7 2-11 7-11 14 0 22 0 43 0 64 0 97 0 193 0 290 0 1 0 3 0 5h-690v-863c2 0 4 0 6 0 126 0 252 0 379 0 2 0 5 0 7-1 6-1 10-6 10-12 0-6-3-11-8-14-1-1-2-1-3-2h-408c-5 2-9 6-11 12v897z m472-909c-9 3-11 10-11 20 0 30 0 60 0 90s0 3 0 6c-2 0-4 0-6 0-31 0-62 0-93 0-9 0-14 4-16 11-1 5 0 9 3 12 1 1 3 3 4 4 41 41 82 81 123 122 3 3 3 5 1 8-43 94 5 203 102 236 98 32 202-27 223-128 8-37 4-73-12-107-2-4-1-7 2-10 41-41 82-82 123-123 4-4 7-8 6-14-2-8-7-12-16-12-31 0-62 0-93 0-2 0-3 0-6 0 0-2 0-4 0-6 0-30 0-60 0-90 0-10-2-17-11-20h-6c-4 3-9 6-12 10-47 46-93 92-139 139-1 1-2 3-3 5-1 0-2 0-3 0-1-2-2-4-3-5-46-47-92-93-138-139-4-4-9-7-13-10h-5z m161 489c-80 0-144-64-144-144 0-80 64-144 145-144 79 0 143 65 143 144 0 80-65 145-144 144z m-144-438c41 41 82 82 123 123-49 7-88 30-117 69-33-33-66-66-99-99 1 0 3 0 4 0 24 0 49 0 73 0 10 0 16-6 16-16 0-17 0-35 0-52 0-9 0-17 0-25z m288-1c0 1 0 3 0 4 0 24 0 48 0 73 0 12 5 17 17 17 24 0 48 0 72 0 2 0 3 0 4 0-33 33-66 66-99 99 0-1-1-2-2-3-15-19-32-34-52-45-19-10-38-17-59-20-2 0-3-1-4-1 41-41 82-83 123-124z m-432 497c-71 0-142 0-213 0-8 0-13 3-16 9-4 10 3 19 14 19 27 0 53 0 79 0 116 0 232 0 348 0 4 0 7 0 11-2 5-3 7-9 6-15-1-6-6-10-13-11-1 0-2 0-3 0-71 0-143 0-214 0z m73 143c66 0 132 0 197 0 4 0 7 0 10-2 6-2 9-9 7-14-1-7-6-11-13-12-4 0-8 0-12 0-129 0-259 0-388 0-3 0-7 1-10 2-5 3-8 10-6 15 2 7 7 11 14 11 19 0 38 0 57 0 48 0 96 0 144 0z m-145-258c-47 0-93 0-140 0-3 0-7 0-10 2-5 2-8 9-7 14 2 7 7 12 14 12 6 0 12 0 18 0 89 0 178 0 267 0 4 0 7-1 10-3 6-2 8-9 7-14-2-7-7-11-13-12-2 0-3 0-5 0-47 0-93 0-140 0z m0-87c47 0 94 0 141 0 4 0 7 0 10-2 6-2 8-9 7-15-2-6-7-11-14-11-3 0-7 0-11 0-91 0-182 0-273 0-3 0-6 0-8 1-6 2-10 9-9 15 1 7 6 12 13 12 1 0 2 0 3 0 47 0 94 0 141 0z m-28-115c37 0 75 0 113 0 3 0 7-1 10-2 5-3 7-10 6-16-2-6-7-10-15-10-23 0-45 0-68 0-53 0-106 0-159 0-7 0-13 3-15 9-3 9 3 19 14 19 8 0 17 0 25 0 30 0 59 0 89 0z m-29-115c28 0 56 0 85 0 11 0 18-9 14-19-2-6-7-10-15-10-38 0-75 0-113 0-19 0-38 0-57 0-6 0-11 3-14 9-2 5-1 10 3 15 3 4 7 5 12 5 28 0 56 0 84 0z m-29 662c-19 0-37 0-56 0-11 0-18 9-14 19 2 5 7 9 13 9 38 0 77 0 115 0 8 0 14-6 14-14 0-7-6-14-14-14-19 0-38 0-57 0z m359-425c0-50 32-87 75-93 55-7 102 37 98 93 0 5-2 11-3 16-2 9 1 17 10 19 8 2 15-3 17-12 19-65-25-134-92-144-64-9-122 33-132 97-9 58 31 117 89 129 18 4 37 3 55-2 9-2 14-9 12-17-2-9-10-13-19-10-23 6-45 4-66-8-29-17-43-43-44-69z m159 79c7 0 14-6 14-14 0-8-6-14-14-14-7 0-14 7-14 14 0 7 7 14 14 14z" horiz-adv-x="1000" />

<glyph glyph-name="users" unicode="&#xe826;" d="M665 293c-2-2 13-24 16-31 20-49 3-125 9-178-2-18-24-24-32-6-2 45 3 92 0 137-3 45-27 76-71 88-37 10-153 9-187-7-84-41-41-143-53-216s-29-18-31 4c-4 34-3 108 0 143s6 31 13 45 12 16 10 19c-10 4-19 9-30 12-31 8-130 9-162 2s-69-35-76-73l-2-155c-7-13-24-14-30 0 1 49-5 103-1 152s65 106 125 110c39 3 125 4 161-7s26-12 39-20c23 13 46 24 74 27 39 3 131 4 166-8s33-17 35-17 27 14 33 17c36 12 125 11 164 8 62-4 120-48 125-112 3-38 4-106 0-143s-28-22-31-4c-8 76 31 194-68 222-32 9-137 9-170 1s-18-7-27-10z m-182 338c137 17 194-161 81-225-100-57-215 41-175 149 14 37 54 71 94 76z m7-32c-111-13-96-191 24-177 113 12 99 192-24 177z m198-175c-109 107 47 280 165 179 125-107-46-295-165-179z m75 175c-115-13-97-190 22-177 114 12 98 192-22 177z m-557 32c90 11 160-68 135-156s-149-115-210-42c-59 71-17 187 75 198z m7-32c-114-13-96-192 24-177 112 13 97 192-24 177z" horiz-adv-x="1000" />

<glyph glyph-name="actioncenter" unicode="&#xe827;" d="M311 688h154c7 54 50 99 102 110 75 15 145-35 157-110l65-1c79-7 146-69 159-147 17-103-57-198-161-208h-279s42-42 42-42l-26-27-67 67-4 2c-74-2-149 3-223 0-53-2-99-26-125-73-42-75-6-170 74-200 32-12 63-9 97-9 8 53 48 98 101 110s138-27 156-96c1-3 2-13 4-14h150c1 0 2 0 2 2 1 3 2 9 3 13 22 83 117 124 193 80 88-51 86-180-3-229-80-44-181 6-193 97h-153c-10-65-65-113-130-113-65 0-120 48-130 113l-65 1c-116 12-191 129-150 240 24 64 83 109 151 115h241s4 3 4 3l67 67 26-27-42-42h262c134-1 196 171 87 253s-84 30-133 29c-6-40-30-76-65-96-76-43-170-2-192 82s-1 13-6 14h-149s-1-2-1-2c-14-90-114-139-195-94-84 47-88 169-7 223s189 4 202-91z m-130 75c-71-1-116-80-80-141 35-62 125-62 161-1s-8 142-81 142z m412 0c-76-2-119-87-75-149 43-60 137-48 163 21s-23 129-89 128z m-197-638c-64-6-101-77-74-134s127-72 165-8c40 68-14 149-91 142z m413 0c-74-7-110-98-61-155 45-53 130-40 157 24 29 67-24 137-96 131z" horiz-adv-x="1000" />

<glyph glyph-name="settingscompanysettings" unicode="&#xe828;" d="M268 208v268c0 11 6 17 18 17h276c11 0 17-6 17-17v-538c0-3 1-4 4-4 39 0 78 0 116 0 3 0 4 1 4 4 0 134 0 267 0 401 0 3-1 4-4 5-26 8-52 17-78 25-9 3-14 11-11 20 3 10 11 14 21 11 31-10 62-20 93-31 7-2 11-7 11-16v-209c0-68 0-137 0-206 0-3 0-4 4-4 14 0 28 0 43 0 7 0 14-6 15-13 1-8-3-15-11-18-2 0-4 0-6 0-72 0-143 0-215 0-10 0-17 9-17 17 0 57 0 114 0 172v365q0 6-5 6h-239c-3 0-4 0-4-4 0-173 0-346 0-520 0-3 0-4 4-4 23 0 47 0 70 0 3 0 4 1 4 4 0 24 0 48 0 72s6 18 17 18h59c11 0 17-7 17-18v-73c0-3 1-3 4-3 9 0 19 0 28 0 8 0 14-6 15-15 0-7-4-14-12-16-2-1-4 0-6 0h-208c-23 0-46 0-70 0-11 0-19 12-13 22 3 6 8 9 14 9 14 0 29 0 43 0 3 0 3 1 3 4 0 90 0 180 0 270h0z m171-243v28c0 2 0 3-3 3-8 0-17 0-25 0-2 0-3-1-3-3v-57c0-2 0-3 3-3 8 0 17 0 25 0 2 0 3 1 3 3 0 10 0 19 0 29z m-63 217h-14c-10 0-17 7-17 16s7 15 17 16c10 0 19 0 29 0 10 0 16-7 16-16 0-9-6-15-16-16-5 0-10 0-15 0z m265 31h14c10 0 17-6 17-15s-7-16-17-16c-10 0-19 0-29 0-10 0-17 7-17 16s7 15 16 16c5 0 10 0 15 0z m-171 0c5 0 10 0 15 0 8 0 15-6 16-13 1-8-4-15-11-17-2-1-4-1-6-1h-29c-9 0-16 7-16 16 0 9 7 15 16 15h15z m0 93h15c9 0 16-6 16-15 0-9-7-16-16-16-10 0-20 0-30 0-9 0-16 7-16 16 0 9 6 15 16 16 5 0 10 0 15 0z m0-217h-15c-9 0-16 7-16 16 0 9 7 16 17 16 9 0 19 0 29 0 10 0 16-7 16-16s-7-16-16-16c-5 0-10 0-15 0z m-93 217h14c10 0 16-6 16-15s-6-16-16-16c-10 0-20 0-30 0-9 0-16 7-16 16 0 9 7 15 16 15 5 0 10 0 15 0z m-1-217h-14c-10 0-16 7-16 16 0 8 7 15 16 15 10 0 20 0 30 0 8 0 15-6 16-13 1-8-4-16-12-18-5-1-10 0-15 0-1 0-3 0-4 0z m265 217c5 0 10 0 15 0 9 0 16-6 16-15s-7-16-16-16c-10 0-20 0-30 0-9 0-17 8-16 16 0 9 7 15 16 15 5 0 10 0 14 0z m0-217h-15c-9 0-16 7-16 16 0 9 7 15 16 16 10 0 20 0 30 0 9 0 16-7 16-16 0-9-7-15-17-15-5 0-10 0-14 0z m-264 311c5 0 10 0 16 0 8 0 15-7 15-16 0-8-6-15-15-16-11 0-21 0-32 0-9 0-15 8-15 16 0 9 6 15 15 15 5 0 11 0 16 0z m93 0c5 0 10 0 16 0 8 0 15-7 15-15 0-9-7-16-15-16-11 0-22 0-32 0-9 0-15 7-15 16 0 8 6 15 15 15 5 0 10 0 16 0z m171-404c-6 0-11 0-16 0-9 0-16 7-16 16s7 15 16 15c10 0 21 0 31 0 9 0 16-7 16-15 0-9-7-16-15-16-5 0-11 0-16 0z m58 458m170 28c-26 5-52 9-78 13-4 0-6 2-7 6-6 14-12 29-18 44-2 3-2 6 0 9 16 21 31 43 46 64 8 12 8 21-2 31-23 23-47 47-70 70-10 10-19 11-30 3-22-15-43-30-64-46-4-3-7-2-12 0-14 6-28 12-42 17-4 2-6 4-6 8-4 26-9 51-13 77-2 14-9 20-23 20h-99c-14 0-21-6-23-20-4-25-9-51-13-76 0-5-2-7-7-9-14-5-28-11-42-17-5-2-8-2-12 1-21 15-42 30-62 44-12 9-21 8-31-2-24-23-47-46-71-70-10-10-10-19-2-31 15-21 30-42 46-63 2-3 2-6 0-10-6-15-12-29-18-44-1-4-3-5-7-6-26-5-53-9-79-13-13-2-19-10-19-23v-99c0-15 6-21 20-24 26-4 52-9 78-13 4 0 6-2 7-6 3-9 7-18 11-27 3-8 9-16 8-23-1-7-8-13-13-20-12-16-24-32-35-48-7-10-6-19 2-27 23-24 47-48 71-71v56c-10 11-21 21-31 32 1 2 2 4 4 6 9 13 19 26 28 39v78c-2 7-5 14-7 21-5 20-15 29-35 30-22 2-45 8-66 11 0 25 0 48 0 72 2 0 4 1 7 1 24 4 48 9 72 12 10 2 16 7 19 17 6 23 15 45 27 65 4 8 4 16-1 23-7 9-13 18-19 26-10 14-19 27-29 41l50 50c2-1 4-2 5-3 19-13 38-27 57-41 11-8 21-9 34-2 18 9 38 17 57 23 13 4 20 11 21 24 4 25 8 51 12 74h72c4-25 8-52 13-78 1-10 6-16 16-19 23-6 45-15 65-27 9-5 16-4 24 1 12 8 23 17 35 25 10 7 21 15 32 23l51-51c-1-2-2-3-3-5-15-21-29-41-44-61-5-8-6-16-1-25 12-20 21-42 27-65 2-10 8-15 18-16 10-2 20-4 30-5 17-3 34-6 50-8 0-24 0-48 0-72-2 0-5-1-7-1-24-4-48-8-72-12-10-1-16-7-19-16-2-6-3-11-5-16v-103c1-2 2-3 4-5 7-11 15-22 22-32l-26-26v-57c22 21 43 43 65 64s10 19 2 30c-16 22-31 43-46 65-3 3-2 6-1 9 7 15 13 29 18 44 2 4 4 6 8 6 26 4 51 9 77 13 14 2 20 9 20 23v99c0 14-6 21-20 23z m-485 24c30 27 69 43 111 43 84 0 153-62 164-142l40-15c-4 109-94 196-204 196s-125-32-162-81h51z" horiz-adv-x="1000" />

<glyph glyph-name="settingsconnectors" unicode="&#xe829;" d="M661 703c39 0 75-11 108-34 3-3 4-2 7 1 34 35 69 69 104 104 9 9 20 13 33 9 22-7 29-35 12-52-16-16-32-32-48-48-19-19-38-38-57-57-3-3-3-4-1-7 53-77 43-183-23-249-13-13-32-13-44-1-13 12-13 31-1 44 17 17 29 37 35 60 11 44 3 85-26 121-18 21-39 37-66 43-29 7-57 5-85-5-20-8-38-19-53-35-14-13-28-27-41-41-4-3-4-5 0-8 68-68 136-136 205-204 12-13 14-29 5-42-11-16-33-17-47-4-11 10-21 21-32 32-2 2-4 3-6 0-18-19-36-38-54-56-17-17-45-10-52 12-4 12-1 22 8 31 18 19 36 38 54 56 3 3 3 4 0 7-22 22-43 43-65 65-3 3-4 3-7 0-19-18-38-36-57-54-17-16-45-9-51 14-3 12 0 22 9 31 19 18 37 35 55 53 4 3 3 4 0 7-11 11-22 22-33 33-14 14-14 32 0 46 23 23 46 47 70 69 36 35 79 54 128 58 6 1 12 1 18 1z m-311-696c-40 0-76 11-109 34-3 2-4 2-7 0-38-38-76-77-114-115-11-11-25-13-38-6-18 11-21 35-6 50 31 32 63 63 94 94 7 7 14 14 22 21 2 2 2 4 0 6-17 24-27 51-32 80-9 65 9 122 55 170 12 13 31 12 43 1 13-12 13-31 1-44-6-6-12-13-17-21-37-55-28-130 21-174 39-35 84-41 133-26 22 7 41 19 58 35 14 14 28 29 42 43 3 3 3 4 0 7-68 68-137 137-206 205-11 11-13 25-6 38 10 18 34 22 49 7 24-24 48-48 73-72 53-53 106-106 159-159 5-5 8-11 9-18 2-10 0-19-8-27-26-26-51-54-79-78-31-27-67-43-107-49-10-2-20-2-30-2z" horiz-adv-x="1000" />

<glyph glyph-name="settingscustomadapter" unicode="&#xe82a;" d="M106 350v345c0 56 37 93 93 93h513c50 0 85-28 93-74 1-5 1-10 1-15v-302c0-13-7-22-17-24s-21 3-25 13c-2 5-2 10-2 15v295c0 24-11 41-32 47-5 1-10 1-15 1h-517c-31 0-48-17-48-48v-691c0-31 18-49 49-49h211c18 0 29-15 22-30-4-10-12-14-23-14h-213c-53 1-90 39-90 92v347z m373-412c4 22 9 47 13 73 0 4 2 8 2 11 1 25 14 42 31 59 80 79 159 159 239 238 12 12 23 12 35 0 29-28 58-57 86-86 12-11 12-23 0-35-86-86-173-173-259-260-3-3-6-5-10-6-37-6-74-13-111-19-16-3-26 7-26 25z m55 23c21 4 43 8 64 12 3 0 5 3 7 4 55 56 110 112 166 167 4 4 3 6 0 10-16 16-33 32-49 49-5 5-8 4-13 0-54-55-108-109-162-164-3-3-5-5-6-10-4-20-8-41-12-61 0-4 0-7 5-7z m272 220c2 1 3 2 4 3 9 9 18 18 27 27 4 3 2 5-1 8-16 17-34 34-50 51-4 4-7 3-10 0-8-8-16-16-24-24-4-4-4-7 0-11 16-16 33-33 49-48 2-2 3-3 5-5z m-119 467h-473c-10 0-19-3-23-13-8-15 3-31 22-31h476c16 0 25 9 25 22-1 13-11 22-26 22z m0-150h-473c-10 0-19-3-23-12-8-16 3-31 22-31h476c16 0 25 9 25 22-1 13-11 22-26 22z m-142-148h-339c-7 0-13-3-17-13-5-15 3-31 16-31h340c11 0 18 9 18 22 0 13-7 22-18 22z" horiz-adv-x="1000" />

<glyph glyph-name="settingsdiscoveryschedule" unicode="&#xe82b;" d="M944 210c0-152-123-277-275-277-154 0-278 124-278 277 0 153 124 276 276 277 153 1 277-123 277-277z m-511-1c0-129 105-234 235-234 129 0 234 106 234 235 0 130-106 234-237 233-127 0-232-106-232-234z m-186 482v51c0 16 8 25 21 25 13 0 22-9 22-25 0-48 0-96 0-144 0-16-9-26-22-26-13 0-21 10-21 26v50h-94c-32 0-53-22-53-54v-459c0-32 21-53 54-53h199c14 0 24-9 24-22s-9-21-23-22c-2 0-4 0-7 0-64 0-127 0-191 0-9 0-18 1-27 3-42 11-71 47-71 91 0 155 0 310 0 466 0 52 40 92 93 93 32 0 64 0 97 0z m343-42h-106c-46 0-92 0-137 0s-21 7-23 18c-2 9 3 19 13 23 4 1 9 2 13 2 24 0 47 0 70 0 54 0 107 0 160 0h11c0 19 0 36 0 54 0 15 12 24 26 21 10-2 16-10 16-23 0-38 0-75 0-112s0-24 0-35c0-16-8-25-21-25s-21 10-21 25c0 17 0 33 0 52z m-288-179h135c15 0 24-8 24-21s-9-22-24-22c-91 0-181 0-271 0-14 0-22 7-24 19-2 9 4 19 14 23 3 1 8 1 12 1 44 0 89 0 134 0z m478 88v40c0 28-22 50-50 51-14 0-27 0-40 0-15 0-24 9-24 21 0 13 9 22 24 21 20 0 41 1 61-3 41-7 72-45 73-88 0-28 0-57 0-86 0-14-9-24-22-24-13 0-22 10-22 25 0 14 0 28 0 43z m-134-272v75c0 14 8 23 21 23s21-9 21-23c0-43 0-86 0-129 0-6 2-10 8-13 28-13 55-27 82-41 10-5 14-14 12-24-2-9-9-16-18-16-5 0-10 1-14 3-33 16-65 32-97 48-10 5-15 13-15 24 0 25 0 49 0 73z" horiz-adv-x="1000" />

<glyph glyph-name="settingsdiscoverysettings" unicode="&#xe82c;" d="M798 155c35-35 71-70 106-106 23-23 25-57 7-82-23-31-67-34-95-7-30 29-59 59-88 89-6 6-12 15-19 16-7 2-15-6-22-9-97-44-212-20-283 60-5 5-10 8-18 8-94 0-188 0-282 0s-26 5-26 25c0 195 0 390 0 585s5 25 25 25h612c19 0 24-5 24-25 0-84 0-169 0-253 0-5 2-11 6-14 91-81 112-201 55-308 0-1-1-2-2-4z m-96 464h-588v-460h256c-48 104-42 203 38 287 84 88 185 98 294 50 0 41 0 82 0 123z m-326-340c0-116 94-210 210-210s210 94 210 210-94 210-210 210c-116 0-210-94-210-210z m-262 377h588v67h-588c0-22 0-44 0-67z m626-571c33-33 68-68 104-102 5-4 14-6 22-5 10 1 17 8 20 18 4 12 0 22-8 30-31 31-62 62-93 92-2 3-5 5-6 6-13-13-26-25-39-39z m-250 341c5-3 11-5 15-8 7-5 13-9 20-14 8-6 15-3 17 7 2 9 3 18 4 27 2 11 8 16 19 17 14 0 29 0 43 0 11 0 16-6 19-17 1-9 3-17 4-26 2-11 9-14 18-8 7 6 15 11 23 16 8 6 16 5 23-2 11-10 21-21 32-31 7-7 7-15 2-24-5-7-11-15-16-23-7-10-5-15 7-17 9-2 18-3 27-5 10-2 15-8 16-18 0-15 0-29 0-43 0-11-6-17-17-19-10-2-20-4-30-6-8-2-10-7-5-14 5-8 11-16 17-24 6-10 6-17-2-25-10-10-20-20-30-30-8-8-16-9-25-2-9 5-16 11-25 17-7 5-12 3-14-6-2-9-3-19-5-29-2-12-8-17-19-17-14 0-28 0-41 0-12 0-18 5-20 17-2 10-3 19-5 29-2 9-7 11-14 6-9-6-16-12-25-17-9-7-17-6-25 2-10 10-20 20-30 30-7 7-8 15-2 24 6 8 12 17 17 25 5 7 3 13-5 15-10 2-20 3-30 5-11 2-16 8-17 19 0 14 0 29 0 43 0 11 6 16 17 18 9 2 19 3 28 5 9 2 12 8 6 16-5 8-11 15-16 23-6 9-6 17 1 24 11 11 21 21 32 32 3 2 8 4 12 6z m4-43c-5-4-9-7-13-10 6-9 13-17 17-25 3-5 5-12 4-17-7-23-17-45-47-43-7 0-10-2-10-9s4-9 10-9c22-1 39-8 43-32 0-1 1-3 2-4 4-9 4-16-2-24-6-8-11-16-16-24 3-4 6-8 10-12 9 7 17 14 26 18 5 3 12 5 17 3 24-6 43-17 41-46 0-6 2-10 10-10 9 0 8 5 9 10 7 32 1 33 32 43 2 0 3 2 5 2 8 5 15 4 22-2 8-6 17-11 23-16 5 3 9 6 13 9-6 9-13 17-18 26-2 6-3 13-2 20 6 25 20 40 48 39 6 0 8 3 8 9s-1 9-8 9c-4 0-8 2-13 2-15 1-25 7-28 23 0 5-3 9-5 12-5 8-4 16 1 23 6 8 11 16 16 23-3 5-6 9-9 13-10-7-18-13-26-18-14-9-51 6-55 23 0 1 0 2-1 3-1 7-2 14-3 21-1 7-5 8-10 6-3-1-6-3-8-6-2-4-2-8-2-12-1-16-7-28-25-31-3 0-7-2-10-4-9-6-18-5-26 2-6 6-14 11-20 15z m-327 288c-5 1-9 1-13 3-9 3-11 10-10 19 1 9 9 14 21 14 15 0 22-4 24-13 2-9-1-16-9-20-4-1-9-1-13-2z m120 1c-14 0-22 6-22 17 0 12 8 18 26 18 13 0 21-7 20-19 0-11-8-16-23-16z m-60 0c-8-1-16 1-21 9-5 8-3 16 4 22 7 6 26 6 34 0 6-6 8-13 4-22-4-8-12-10-21-9z m290-392c0 38 32 68 70 68 37 0 68-31 68-68s-32-69-69-69c-38 0-69 32-69 69z m103-1c0 18-16 34-34 34s-33-16-33-34 15-33 33-33 34 15 34 33z" horiz-adv-x="1000" />

<glyph glyph-name="settingsgroups" unicode="&#xe82d;" d="M510 794c7-2 14-4 21-6 31-9 65-39 63-86 0-14 0-27 0-40 0-31-3-39-27-70 4-1 7-3 11-4 22-9 43-21 60-39 9-10 14-21 14-34 0-21 0-42 0-63 0-4-3-9-6-11-29-25-65-37-103-41-42-5-83-4-124 8-24 7-45 18-64 34-2 2-4 6-4 8-1 22-1 45-1 68s9 26 19 36c17 16 37 26 59 35 2 1 4 1 6 3-4 5-9 10-13 16-9 13-14 27-14 43 0 22-1 45 1 67 4 36 36 66 75 73 2 0 5 1 7 2 7 0 14 0 21 0z m104-303c0 3 0 6 0 8 3 19-6 30-21 39-41 24-84 36-131 23-24-6-45-15-64-31-8-6-13-13-12-24 1-10 1-21 0-31-1-11 4-16 14-21 26-14 53-19 83-20 38-2 77 1 113 17 14 6 22 13 19 29 0 3 0 6 0 10z m-171 189h1c0-11-1-23 0-34 6-30 41-49 73-39 26 7 41 26 41 53v31c0 8 0 16-1 24-5 22-26 38-52 41-30 2-64-21-61-55 0-6 0-13 0-21z m-293-465c-22 21-29 46-28 74 1 18-1 36 2 53 7 40 34 63 73 72 42 10 90-14 106-53 4-9 6-19 7-29 1-18 1-37 0-56 0-22-4-31-27-61 6-3 11-5 17-8 20-9 38-20 53-36 9-10 14-21 14-35 0-21 0-41 0-62 0-6-2-9-7-13-44-30-93-42-146-41-51 0-99 12-142 41-5 4-7 8-7 14 0 19 1 38 0 57-1 19 6 34 20 46 16 15 36 26 56 33 2 1 4 2 8 4z m180-101c0 3 0 7 0 10 3 16-4 26-16 33-41 27-86 39-135 27-25-6-48-16-68-33-6-6-9-11-8-20 1-13 0-25 0-37 0-6 2-10 7-13 26-14 53-22 83-24 42-2 84 1 123 21 10 5 16 10 14 23-1 4 0 8 0 13z m-56 188h-1c0 12 1 24 0 35-6 28-39 47-70 40-28-7-43-26-43-56s1-26 0-38c-2-31 20-48 40-54 34-11 78 14 74 55-1 6 0 12 0 19z m576-87c12-6 24-11 36-17 8-5 17-11 24-17 16-13 25-29 24-51-1-19 0-38 0-57 0-6-2-9-7-12-43-29-90-41-142-42-53 0-102 11-146 42-5 3-7 7-7 13 0 19 1 39 0 58-1 19 6 33 19 45 17 15 36 26 58 34 2 1 4 2 8 4-14 13-25 28-26 47-2 27-4 54 0 81 6 43 51 75 95 72 43-2 77-28 88-65 1-4 2-10 2-14 0-22 1-44 0-67-1-21-11-38-26-53z m47-101c0 3 0 8 0 11 3 16-5 26-16 33-39 26-81 38-127 29-26-5-49-15-70-31-9-7-15-15-14-28 1-11 1-22 0-33 0-7 3-10 8-13 26-14 54-22 83-24 41-3 81 0 120 18 13 6 20 14 17 29 0 2 0 5 0 8z m-57 188v25c0 13-5 25-15 34-14 14-32 19-52 16-25-4-48-24-47-54 1-13 0-27 0-41 0-27 14-46 40-53 35-11 78 14 74 55 0 6 0 12 0 18z m-171-318c6-11 11-21 17-32-98-58-259-64-371 0 5 11 11 21 17 32 53-27 109-41 168-41 59 0 115 13 169 41z m30 680c6 11 12 21 18 32 63-35 113-82 150-144 24-40 40-84 47-132-12-1-24-3-36-5-20 111-82 192-179 249z m-578-248c-12 1-24 3-36 5 6 46 21 87 43 126 36 62 99 123 154 149 6-10 11-21 18-31-97-57-159-138-180-249z" horiz-adv-x="1000" />

<glyph glyph-name="settingsldap" unicode="&#xe82e;" d="M772 312h-254v-51q0-21-22-21c-16 0-14-2-14 15 0 18 0 36 0 54 0 1 0 2-1 3h-253v-71h-35v107h278q11 0 11 12v60h36v-72h289v-107h-35c0 23 0 47 0 71z m-210-284c17-12 32-23 47-36 13-11 19-26 18-44-1-9-1-18 0-27 0-6-2-8-9-8-7 1-13 0-20 0-6 0-8 2-8 8 0 10 1 20 0 29 0 6-2 13-6 17-51 49-115 50-167 2-6-5-8-11-8-19 0-10 0-20 0-30 0-5-2-7-7-7-8 0-15 0-22 0-5 0-8 2-7 7 0 12 0 24 0 35 0 15 6 27 16 36 15 13 31 25 48 38 0 0-3 1-5 3-15 14-23 31-23 53 0 11 1 23 0 35-1 32 15 55 41 70 42 24 97 14 124-22 9-12 15-26 15-41 0-13 0-27 0-40 0-22-8-40-24-54-1-2-3-3-4-4 0-1 0-1 0 0z m-7 77c0 6 0 12 0 18 1 13-6 24-16 32-23 18-58 17-80-2-9-8-15-17-14-29 1-12 1-25 0-37 0-14 6-24 17-32 21-16 52-16 74-1 12 8 20 19 19 35 0 6 0 11 0 16z m294-79c49-22 79-54 64-112h-33c0 11 0 22 0 33 1 10-3 18-11 24-43 36-88 45-136 17-5-2-9-5-13-8-15-9-25-22-22-41 1-8 0-16 0-25h-35c0 17-1 34 0 51 2 14 11 25 22 34 13 10 27 19 41 28 0 0 0 0 0 0-24 20-30 46-28 75 0 6 0 12 0 18-1 28 11 49 33 65 39 28 96 23 128-12 13-14 20-30 19-49 0-13 0-26 0-39 0-21-8-38-23-53-1-2-3-3-7-7z m-114 79c0-5 0-10 0-16-1-20 9-33 27-41 14-7 29-8 44-4 27 7 39 23 39 50 0 10 0 20 0 30 0 10-4 19-12 26-17 16-38 21-61 15-26-7-37-21-37-48 0-4 0-8 0-12z m-398-191h-36c0 12 1 24 0 35 0 6-2 14-6 18-50 48-115 50-167 2-6-5-9-11-8-19 0-12 0-23 0-36h-37c1 19 0 38 4 56 4 18 19 29 33 39 9 6 19 11 28 17 0 0 0 1 0 1-21 18-29 41-27 68 1 13-1 27 1 40 4 31 24 49 51 60 38 16 82 7 108-22 12-12 19-27 20-44 0-17 0-34 0-51-1-19-9-34-23-47-1-2-3-3-5-6 3-1 5-3 7-4 9-5 18-10 27-17 20-16 34-35 30-62-1-9 0-19 0-29z m-72 189c0 7 0 13 0 19 0 14-6 24-16 33-23 18-58 17-80-2-9-8-14-17-14-30 0-12 0-25 0-37 0-13 5-23 15-31 22-19 58-19 81 0 9 8 15 18 14 31 0 6 0 12 0 18z m400 457c0-6-2-12-5-17-6-11-12-21-19-32-9-16-26-21-44-15-6 3-12 5-18 8-2 0-4 0-5-1-6-2-11-6-16-8-1-1-2-2-3-4-1-8-2-15-3-23-3-16-17-27-34-27-12 0-25 0-38 0-18 0-32 13-34 30-1 7-2 14-3 20 0 1-1 3-2 3-6 4-11 7-17 10-1 0-3 0-4 0-7-3-14-6-21-8-16-6-32 0-41 14-7 11-13 23-19 34-8 14-5 32 8 43 5 4 11 8 16 12 3 2 3 4 3 7 0 5 0 11 0 16 0 2-1 3-2 4-5 4-10 8-15 12-16 12-19 30-9 47 6 10 11 20 17 30 10 16 27 22 44 15 7-2 13-5 19-7 2-1 3 0 5 0 5 3 10 6 16 9 1 1 2 3 2 4 2 7 2 15 4 22 3 16 17 27 33 28 13 0 26 0 39 0 17 0 32-13 34-31 1-7 2-13 3-20 0-1 1-2 2-3 6-3 11-6 16-9 1 0 3-1 5 0 8 3 17 7 25 10 14 3 28-3 36-15s14-24 21-36c7-13 4-31-8-41-6-5-12-9-18-14-1-1-2-3-2-5 0-6 0-11 0-17 0-2 1-3 2-4 5-4 11-9 16-13 9-7 14-16 14-28z m-276 149c-5 0-8-2-10-6-6-10-11-20-17-30-4-6-3-10 2-14 9-7 18-14 27-21 2-1 2-3 2-6-3-12-3-25 0-37 0-3 0-4-2-6-9-7-18-14-26-20-6-5-7-9-3-15 5-10 11-19 17-29 3-6 7-8 14-5 10 4 21 8 31 12 2 1 3 1 5-1 10-8 21-15 33-19 3-1 4-2 4-5 2-10 3-21 5-32 1-7 4-10 11-10h35c7 0 10 3 11 10 1 11 3 22 4 32 0 3 2 4 4 5 12 4 23 11 33 19 2 2 4 2 6 1 11-4 21-8 32-12 6-3 10-1 13 4 6 10 11 20 17 30 4 6 3 10-2 14-9 7-18 14-27 21-2 1-2 3-2 5 3 13 3 25 0 38 0 2 0 4 2 5 9 7 18 14 27 21 5 4 6 8 2 14-5 10-11 20-17 30-4 6-7 8-15 5-10-4-20-8-30-12-2-1-4-1-6 1-9 8-20 15-33 19-2 1-3 2-4 5-1 10-3 21-4 32-1 6-4 10-11 10h-36c-6 0-10-3-11-10-1-11-3-22-4-32 0-3-2-4-4-5-12-4-23-11-33-19-2-2-3-2-6-1-10 4-20 8-30 12-2 0-3 1-4 1z m111-24c39 0 71-31 71-71 0-40-32-72-72-72-39 0-71 32-71 72 0 39 32 71 71 71z m0-118c25 0 46 21 47 46 0 26-21 47-47 47s-46-21-46-46c0-26 21-47 46-47z" horiz-adv-x="1000" />

<glyph glyph-name="settingslicense" unicode="&#xe82f;" d="M500 35h-424c-17 0-21 4-21 21v589c0 16 4 20 21 20h849c17 0 20-3 20-20v-589c0-18-2-21-20-21h-425z m418 27v577h-825c-9 0-11-3-11-12v-565c280 0 557 0 836 0z m-416 531h290c14 0 18-3 18-18 0-6 1-12 2-18 5-26 20-40 47-41 4 0 8 0 12-2 9-2 11-9 11-18v-296c0-11-5-16-16-16-6-1-13-1-18-2-21-4-33-15-37-37-1-6-1-13-2-20 0-13-5-17-18-17h-578c-17 0-21 3-22 20 0 7 0 13-2 20-5 23-19 33-47 35-18 2-21 4-21 22v291c0 13 4 18 17 19 35 2 51 16 53 52q2 25 28 25c95 1 189 1 283 1z m-283-26c0-5-1-9-2-12-5-36-24-57-60-64-7-2-8-4-8-11v-261c0-7 2-9 9-10 30-4 50-24 57-52 2-7 3-14 4-22h554c8 0 11 2 12 11 4 35 26 59 61 63 8 2 9 5 9 13v268c-2 0-3 1-4 1-41 6-62 33-66 70 0 8-5 7-11 7h-544c-4-1-7-1-11-1z m396-360c-2 4-4 9-6 13-8 11-8 20 0 31 2 4 4 9 5 14 0 13 6 21 18 26 5 2 10 5 13 9 7 9 16 12 29 10 5-1 11-1 17 0 12 3 21 0 29-10 3-4 8-7 12-9 12-5 18-13 18-26 0-5 2-10 5-14 7-11 7-21 0-31-2-4-4-9-5-14 0-13-6-21-18-26-5-2-10-5-13-9-7-9-16-12-29-10-5 1-11 1-17 0-12-3-21 0-29 10s-8 7-12 9c-13 5-18 13-17 27z m78-12c0 0 1-2 1-2 1 1 3 2 5 3 9 11 24 15 24 33 0 0 2 2 2 2 0 4 0 6 0 10-2 7-2 15-6 20s-12 9-19 13c-2 2-6 4-9 4-13-1-28 1-38-12 0 0-2 0-3-1-2-2-4-4-6-7-2-7-7-14-7-21s5-13 7-20c0-2-1-3 0-4 1-2 2-4 4-5 5-4 11-8 16-13 2-1 4-2 6-2 8 1 16 2 23 2z m-193 258h206c8 0 13-5 14-13 0-7-5-13-13-13-7-1-16 0-23 0h-384c-14 0-20 4-20 13s5 13 20 13h200z m-1 37h-90c-11 0-17 5-17 13s6 13 17 13h181c13 0 22-9 15-19-3-4-9-7-14-7-31-1-62 0-92 0z m0-98h94c8 0 14-5 14-13s-5-12-13-13h-189c-7 2-13 7-13 14s6 12 14 12h92z m-142-155h61c11 0 16-4 16-13s-5-14-16-14h-123c-11 0-17 5-17 14s6 13 16 13h63z" horiz-adv-x="1000" />

<glyph glyph-name="settingssmtp" unicode="&#xe830;" d="M818 158c12-12 26-26 41-41s12-18 2-32c-27-37-59-69-96-97-13-9-20-8-32 3-14 15-28 29-41 42-35-14-68-28-103-43v-58c0-18-5-23-22-26-44-6-89-6-133 0-17 3-22 8-22 26s0 36 0 54c0 3-3 7-6 8-31 13-63 25-97 38-12-11-25-26-39-40-14-13-20-14-35-3-36 28-68 60-95 96-9 13-8 20 2 31 15 15 30 29 43 42-14 35-28 68-42 103h-59c-17 0-23 5-25 22-7 44-7 89 0 133 2 17 8 22 25 22s36 0 54 0c3 0 8 3 9 6 12 31 24 63 38 98-12 11-27 26-41 40-12 12-12 19-2 32 26 38 59 70 96 97 12 9 20 8 31-3 15-14 29-29 42-42 35 15 68 28 102 43v58c0 17 6 23 23 25 44 7 88 7 132 0 18-2 23-8 23-25s0-36 0-54c0-3 3-8 6-9 31-12 63-24 97-37 12 12 26 26 41 41 12 11 19 12 32 2 37-27 69-59 96-96 9-13 9-20-2-32-15-14-30-28-42-41 14-35 28-68 43-103h58c17 0 23-5 25-22 7-44 7-89 0-133-2-17-8-23-25-23s-36 0-54 0c-3 0-8-2-9-5-12-32-24-64-37-98z m-645 446c16-16 30-30 44-44 12-12 13-17 4-31-21-33-35-68-44-106-3-16-9-20-25-20-17 0-34 0-51 0-8 0-10-2-10-9v-85c0-8 3-11 11-11 17 0 33 0 50 0s22-4 26-20c8-37 22-72 42-104 10-16 9-21-4-34-14-14-28-28-43-43 25-25 49-50 75-75 16 17 30 31 45 46 10 10 16 11 28 3 33-21 69-36 108-45 15-3 19-8 19-23 0-18 0-36 0-53 0-7 2-10 8-10h87c8 0 9 4 9 11 0 16 0 32 0 50s4 23 22 27c36 8 70 22 101 42 17 10 21 10 36-5 13-13 26-27 41-42 26 26 50 50 74 74-2 3-2 4-3 5-14 14-28 28-41 42-10 10-11 16-4 27 22 34 37 70 45 109 3 14 9 18 24 18 17 0 35 0 52 0 8 0 10 3 10 10v85c0 7-3 10-11 10-17 0-34 0-51 0-15 0-21 5-24 20-9 38-24 73-44 106-9 14-8 19 4 31 14 14 28 28 44 44-25 26-50 50-73 73-4-2-5-2-5-2-14-14-28-28-42-42-10-10-16-11-28-3-34 21-70 36-109 45-14 3-18 8-18 23 0 18 0 35 0 52 0 8-3 11-11 11-28 0-56 0-84 0s-10-3-10-11c0-17 0-35 0-52 0-15-5-21-19-24-38-8-74-23-107-44-13-8-19-7-30 4s-28 29-44 45c-25-25-50-50-75-75z m424-75c-22 15-46 22-71 25-26 4-51 2-76-4-13-3-23 2-26 13-2 10 5 19 18 22 81 18 152 0 216-51 3-2 7-4 11-5 46-4 82-43 82-89v-177c0-54-39-92-93-92h-254c22-14 45-21 71-25 26-4 52 0 78 5 12 2 20-4 23-13 2-9-4-19-15-22-2 0-3 0-5-1-78-17-149 0-212 50-4 3-10 6-15 6-45 6-80 44-80 90v178c0 51 39 90 91 90h245c3 0 7 0 11 0z m-312-105v-158c0-37 22-59 60-59h311c36 0 59 22 59 59v147c0 3 0 6 0 10-3-1-5-2-6-3-46-30-91-59-137-89-43-29-98-30-142-1-26 17-51 34-77 51-22 14-44 28-68 44z m6 40c3-2 6-4 8-5 51-33 102-67 153-99 31-20 64-20 95 0 48 30 94 61 141 91 6 4 13 9 21 13-12 20-28 30-49 30-107 0-214 0-321 0-21 0-37-10-48-30z" horiz-adv-x="1000" />

<glyph glyph-name="settingssysteminformation" unicode="&#xe831;" d="M43 23c94 0 188 0 281 0s50 0 74 0c5 0 11-2 13-6 15-20 33-26 57-24 30 2 60 1 89 0 6 0 11 1 14 6 14 20 33 24 56 24 107-1 214-1 321-1s6 0 9 0v-50c-2-2-5-4-7-6-17-17-35-35-53-53-3-3-8-5-13-5-256 0-512 0-768 0-4 0-9 2-12 5-18 17-35 35-53 53-2 2-5 4-7 6 0 16 0 33 0 50z m27-29c2-6 3-10 6-13 12-13 25-25 38-38 4-5 9-7 15-7 64 0 127 0 191 0 184 0 368 0 552 0 4 0 9 2 12 4 14 13 27 27 41 41 2 3 3 7 6 13h-13c-93 0-185-1-278 0-24 0-43-3-57-24-2-3-8-5-12-5-39 0-77 1-115 0-23-1-41 3-55 22-3 6-9 7-15 7-102 0-203 0-304 0h-12z m117 58v398h626v-398h-626z m599 370h-571v-342h571v342z m-629-370h-28v396c0 36 24 60 61 60h622c35 0 59-25 59-59v-397h-28v393c0 25-10 35-35 35h-616c-24 0-34-11-34-34v-378c0-5 0-10 0-16z m600 485h-28c0 5-1 10-1 15-39-3-69 11-81 49-11 33 1 60 28 82-10 9-19 19-30 29-22-29-52-41-87-26-34 14-46 42-43 79h-30c3-39-10-68-47-81-34-12-62 0-84 29-10-10-20-20-30-30 31-24 42-54 26-90-14-32-42-44-78-41 0-5 0-9-1-14h-28c1 13 2 26 4 38 2 9 11 12 20 8 10-3 19-6 29-3 18 4 32 20 33 38 2 19-9 36-27 43-15 7-17 14-7 28 15 21 33 39 54 54 12 9 21 6 26-7 9-23 33-34 56-25 23 9 33 33 23 57-5 13 0 22 13 23 22 1 45 1 67 0 14-1 18-10 13-23-10-24 0-48 23-57 22-9 46 2 56 25 5 14 14 16 26 8 21-16 39-34 55-56 8-12 6-20-8-25-23-10-34-34-25-56 9-23 34-33 57-24 13 6 21 1 23-13 1-7 2-15 2-23 0-3 0-6 0-10z m-128 0h-28c-2 33-15 60-41 80-19 14-42 21-66 20-45-3-91-37-94-99h-28c1 42 18 77 52 102 44 32 92 35 139 8 43-23 64-61 66-111z m-72 0h-24c-6 9-11 17-17 23-4 4-11 5-17 5-14 0-23-8-28-28h-27c0 18 7 33 21 44 18 14 39 17 61 6 20-10 30-27 31-50z m200-273v-26c-1 0-1-1-2-1-17 3-27-6-38-17-15-16-31-31-47-47-37 47-74 93-112 140-38-58-76-114-114-171-39 48-77 96-116 145-14-13-27-26-40-40-7-7-14-11-25-10-6 1-12 0-19 0v27c0 0 1 1 2 1 15-3 26 5 35 16 15 17 31 32 48 49 38-47 75-93 112-140 38 57 76 114 114 171 39-49 78-97 117-146 10 11 22 21 31 32 14 18 31 21 53 17z" horiz-adv-x="1000" />

<glyph glyph-name="settingssyslog" unicode="&#xe832;" d="M320 19h-108c-6 0-10 6-10 19s3 19 9 19c10 0 20 0 31 0h185c1 0 2 0 4 0 4-1 7-7 7-15 1-10-1-19-5-22-2-1-4-1-6-1h-107z m144 363h-239c-16 0-23 8-22 21 0 9 5 15 13 16 4 1 8 1 12 1h474c3 0 6 0 10 0 9-2 15-9 15-18-1-12-6-19-17-20-2 0-5 0-8 0-79 0-159 0-238 0z m-143-204h108c7 0 11-8 9-24 0-7-2-12-6-13-2-1-3-1-5-1h-213c-2 0-3 0-5 1-4 2-6 9-6 20 0 9 3 16 7 17 2 0 5 0 7 0h104z m32 84h-138c-9 0-13 6-13 19s4 18 11 19c11 0 22 0 34 0h246c10 0 14-8 12-24-1-10-5-14-12-14-21 0-42 0-63 0-26 0-51 0-77 0z m1 280h130c16 0 25-12 20-26-3-9-9-13-21-13h-258c-14 0-22 7-22 19-1 13 7 20 21 20 36 0 72 0 108 0 7 0 15 0 23 0z m88-622c0 8-7 14-14 14h-240c-27 0-42 15-42 42v748c0 28 15 42 43 42h404c3 0 5 0 9 0v-10c0-33 0-65 0-98 0-45 33-77 78-77h100v-248c0-6 5-11 11-11h16c6 0 11 5 11 11v46c0 75 0 150 0 225 0 10-4 17-10 24-56 56-113 113-169 169-2 2-6 4-9 7h-459c-6-2-12-4-18-7-31-15-45-40-45-74v-746c0-34 14-60 45-75 5-3 12-4 18-6h257c8 0 14 6 14 14v10z m198 818c0 1 0 2 0 2 40-40 80-80 121-121h-13c-23 0-46 0-69 0-24 0-39 15-40 39 0 27 0 53 0 80z m253-702c0-8-2-14-6-20-7-12-14-25-21-37-11-19-31-25-51-17-8 3-15 6-22 8-1 1-4 0-5 0-6-3-12-7-18-10-2-1-3-2-4-5-1-9-2-17-4-26-3-19-20-32-39-32-15 0-30 0-44 0-20 0-37 15-40 35-1 8-2 16-3 24 0 1-1 3-3 3-6 4-13 8-19 11-2 1-4 1-5 0-8-3-16-6-24-9-19-7-38 0-48 17-8 13-16 26-23 39-10 17-6 38 9 50 6 5 13 10 19 15 3 2 4 4 4 8 0 6 0 13 0 19 0 1-1 4-2 5-6 5-12 9-18 14-17 14-22 35-10 54 6 12 13 23 20 35 11 19 31 26 52 18 7-3 14-6 22-8 1-1 3 0 5 0 6 4 13 7 19 11 1 1 2 3 3 4 1 9 2 18 4 27 4 18 20 31 39 32 15 0 30 0 45 0 20 0 37-16 39-36 1-8 2-15 4-23 0-2 1-3 2-4 6-3 13-7 19-10 2-1 4-1 6-1 10 4 19 8 30 11 15 4 33-3 41-17 9-13 17-27 25-42 8-16 4-36-9-48-7-5-14-11-21-16-1-1-2-4-2-5 0-7 0-14 0-21 0-1 1-4 2-5 6-5 12-9 19-14 10-9 15-20 16-33z m-322 172c-5 0-8-2-11-6-6-12-13-24-20-36-4-7-3-11 3-16 10-8 20-16 30-24 3-2 3-3 3-6-3-15-3-29 0-44 0-3 0-5-3-6-10-8-20-16-30-24-6-5-7-10-3-17 6-11 13-22 20-34 4-8 9-9 17-6 12 5 24 9 36 15 2 1 4 0 6-1 12-11 24-18 39-23 3-1 4-2 4-5 2-13 4-25 6-38 1-8 5-11 13-11h41c8 0 11 3 13 11 2 13 3 25 5 38 0 3 2 4 5 5 14 5 27 12 38 23 3 2 4 2 7 1 12-6 24-11 36-15 7-3 12-1 16 5 7 12 13 24 20 36 4 7 3 12-3 17-10 8-20 16-31 24-2 2-3 3-2 6 3 15 3 30 0 44-1 3 0 5 2 7 11 8 21 16 31 23 6 5 7 10 3 17-7 11-14 22-20 34-5 7-9 9-18 6-12-5-23-10-35-14-3-1-5-1-7 1-11 10-24 17-38 22-3 1-5 2-5 6-2 12-4 25-6 37-1 8-5 12-12 12-14 0-28 0-41 0-8 0-12-4-13-12-2-12-3-25-5-37 0-3-2-5-5-6-14-5-27-12-38-22-3-2-5-2-7-1-12 5-24 9-36 14-2 0-4 1-5 1z m129-27c47 0 84-37 84-83s-37-83-84-83c-46 0-83 37-83 83s37 83 84 83z m0-138c30 0 54 25 54 54 0 30-24 55-54 55s-55-24-55-54c0-30 25-55 55-55z" horiz-adv-x="1000" />

<glyph glyph-name="settingsusers" unicode="&#xe833;" d="M499 314c21 0 42 0 63 0 58 2 104-37 115-94 8-36 16-72 23-108 3-14-1-27-12-34-11-8-25-8-36 0-7 5-11 12-13 21-8 37-16 74-24 111-6 27-25 42-53 42-43 0-86 0-129 0-27 0-46-16-52-42-8-37-16-74-24-111-3-13-10-22-24-26-12-3-23 0-31 10-6 8-9 17-7 27 9 39 16 78 26 117 10 43 37 71 80 84 10 3 20 4 31 4 22 0 44 0 66 0z m127 189c0-70-57-126-127-126-69 0-125 57-125 127 0 69 57 125 127 125 69 0 125-57 125-127z m-63 0c0 34-28 63-62 63-35 0-64-28-64-62 0-35 28-63 63-64 35 0 63 28 63 63z m346-47c0-61-49-110-110-110-61 0-110 49-110 110 0 61 50 110 111 110 60 0 110-49 109-110z m-110-48c26 0 47 21 48 47 0 26-21 48-47 48-26 0-48-21-48-47 0-26 21-48 47-48z m-488 48c0-61-49-110-110-110-61 0-110 49-110 110 0 61 49 110 110 110 61 0 110-49 110-110z m-63 0c0 26-21 47-47 47-26 0-47-21-47-47 0-26 21-47 47-47 26 0 47 21 47 47z m-38-142c24 0 47 0 71 0 15 0 28-12 30-27 2-15-7-30-22-34-3-1-7-2-11-2-43 0-87 0-131 0-19 0-31-9-35-28-7-30-14-61-22-91-4-18-20-28-37-24-18 4-28 20-24 38 7 32 14 65 22 97 10 38 42 66 82 71 14 2 29 0 44 1 11 0 22 0 33 0h0z m581 0c20 0 40 0 60 0 49 2 90-31 100-79 6-29 13-59 20-88 4-17-4-33-19-39-15-5-32 1-39 15-3 6-4 12-5 18-7 27-13 55-19 82-4 18-17 28-35 28-45 0-89 0-133 0-18 0-32 14-32 31 0 17 13 31 31 32 23 0 47 0 71 0h0z" horiz-adv-x="1000" />

<glyph glyph-name="settingscompanies" unicode="&#xe834;" d="M537 778c34-10 66-20 99-30 53-16 105-32 157-47 7-2 9-5 9-12 0-14 0-29 0-44 0-8 2-11 11-10 28 0 57 0 85 0 10 0 12-3 12-13 0-219 0-438 0-658 0-10 3-12 12-11 10 1 19 0 28 0 2 0 6 1 6-3 0-8 0-16 0-25 0-4-4-2-7-2-17 0-34-1-51-1-107 0-215 0-322 0-126 0-252 0-378 0-48 0-96 1-144 1-7 0-8 2-8 8 0 22 0 22 22 22 7 0 17-2 22 2 6 4 2 15 2 23 0 114 0 228 0 342 0 7 2 10 10 13 107 31 214 62 321 94 7 2 8 5 8 11 0 63 0 125 0 187 0 8 2 10 10 10 30 0 59 0 89 0 7 0 9 2 9 9 0 41 0 83 0 124 0 3 0 7 0 11z m-33-327c0-4 0-7 0-11 0-89 0-178 0-267 0-70 0-140 0-211 0-7 2-9 10-9 14 1 29 1 43 0 8 0 9 3 9 10 0 46 0 92 0 138 0 8 2 10 10 10 63 0 126 0 189 0 8 0 10-3 9-10 0-46 0-93 0-139 0-7 2-9 8-9 30 0 59 0 89 0 7 0 9 2 9 9 0 211 0 422 0 633 0 7-2 9-9 9-27 0-54 0-81 0-107 0-213 0-320 0-6 0-10 0-10-8 0-50 0-100 0-150 0-6 0-8 7-6 12 4 24 7 37 11z m-30-270c0 72 0 145 0 218 0 10-3 10-11 8-42-13-83-24-125-37-69-20-139-40-208-60-6-2-9-4-9-12 1-9 0-18 0-27 0-102 0-205 0-308 0-7 2-10 10-10 15 1 30 1 45 0 7 0 9 2 9 9 0 47 0 93 0 138 0 8 2 10 10 10 69 0 137 0 205 0 8 0 10-2 10-10 0-46 0-92 0-139 0-6 1-8 8-8 16 0 31 0 46 0 8 0 10 2 10 10 0 73 0 145 0 217z m-177-228c25 0 50 0 76 0 5 0 7 2 7 7 0 37 0 75 0 112 0 6-2 8-8 8-50 0-99 0-149 0-6 0-8-2-8-8 0-37 0-75 0-112 0-6 2-7 8-7 25 0 49 0 74 0z m372 0c23 0 45 0 68 0 5 0 7 2 7 7 0 37 0 75 0 112 0 6-2 8-8 8-44 0-88 0-132 0-7 0-8-2-8-8 0-37 0-75 0-112 0-6 2-7 7-7 22 0 44 0 67 0z m1 682c32 0 63 0 95 0 6 0 8 2 7 8 0 9 0 17 0 25 0 6-1 8-7 10-63 19-126 38-189 58-8 2-9 0-9-7 0-28 0-56 0-85 0-7 2-9 9-9 32 0 63 0 95 0z m-68-314c10 0 20 0 30 0 5 0 6-1 6-6 2-24 2-24-22-24-15 0-29 0-43 0-6 0-7 1-7 7-1 23-1 23 22 23 4 0 9 0 14 0z m136-30c-10 0-20 0-30 0-5 0-6 1-7 6-1 24-1 24 24 24 14 0 28 0 43 0 5 0 6-1 6-6 1-24 2-24-23-24-4 0-8 0-13 0z m-136 212c-10 0-20 0-30 0-2 0-6-1-6 2 0 9 0 17 0 25 0 4 3 3 6 3 20 0 41 1 61-1 11-1 3-14 5-21 1-4 1-9-6-9-10 1-20 0-30 0z m0-107c-10 0-20 0-30 0-2 0-6-1-6 3 0 8 0 16 0 25 0 3 3 2 6 2 20 0 41 2 61 0 11-2 3-14 5-22 1-4 2-9-6-8-10 0-20 0-30 0z m0-211c-10 0-20 0-30 0-2 0-6-1-6 2 0 9 0 17 0 25 0 4 3 3 6 3 20 0 41 2 61-1 11-1 3-14 5-21 1-4 1-9-6-9-10 1-20 0-30 0z m136 318c-10 0-20 0-31 0-5 0-6 1-6 6-1 24-1 24 23 24 14 0 28 0 42 0 5 0 8 0 8-7 0-23 0-23-23-23-4 0-8 0-13 0z m-1-107c-10 0-20 0-29 0-6 0-7 2-7 7 0 24-1 24 23 24 14 0 28 0 42 0 5 0 8 0 8-7 0-24 0-24-23-24-5 0-10 0-14 0z m0-211c-10 0-20 0-30 0-2 0-5-1-5 2 0 9 0 17 0 25 0 3 2 3 4 3 21 0 42 0 63 0 4 0 5-1 5-4 0-1 0-2 0-2q1-24-22-24c-5 0-10 0-14 0z m-439 86c35 0 69 0 104 0 6 0 8-1 8-8 0-22 0-22-21-22-65 0-129 0-194 0-8 0-11 1-11 10 1 20 0 20 21 20 31 0 62 0 93 0z m-1-108c-35 0-69 0-104 0-7 0-9 2-8 8 0 22 0 22 21 22 65 0 129 0 194 0 9 0 11-2 11-10-1-20 0-20-20-20-31 0-62 0-93 0z" horiz-adv-x="1000" />

<glyph glyph-name="listline" unicode="&#xe835;" d="M945 635c-11-21-30-26-53-26-190 1-380 0-569 0-5 0-10 0-15 1-19 3-32 21-30 39 1 18 16 33 35 34 4 0 7 0 11 0 191 0 382 0 573 0 23 0 39-7 48-28v-21z m0-296c-11-22-30-26-53-26-190 0-380 0-569 0-5 0-10 0-15 0-19 4-32 21-30 40 1 18 16 32 35 33 4 0 7 0 11 0 191 0 382 0 573 0 23 0 39-6 48-28v-21z m0-297c-11-21-30-26-53-26-190 1-380 0-569 0-5 0-10 0-15 1-19 3-32 21-30 39 1 18 16 33 35 34 4 0 7 0 11 0 191 0 382 0 573 0 23 0 39-7 48-28v-21z m-890 322c4 2 4 7 5 10 11 23 38 36 62 31 26-6 44-28 44-54 0-27-18-49-44-55-24-5-51 8-62 31-1 4-1 8-5 10v28z m0-296c4 1 3 4 4 6 11 25 36 40 62 35 27-5 46-28 46-55 0-27-17-48-45-55 0 0-1-1-1-2h-23c-20 9-34 23-42 42v28z m65 634c21-6 37-17 44-38 9-28-5-58-32-69-28-11-59 2-71 28-2 4-2 8-5 10v28c8 20 22 35 44 41h21z" horiz-adv-x="1000" />

<glyph glyph-name="dark" unicode="&#xe836;" d="M93 361c0 177 114 335 282 393 15 5 29 5 41-7 12-11 12-25 7-40-59-197 60-398 261-442 57-12 114-9 170 7 7 2 15 5 22 4 23-1 37-24 29-47-27-81-74-147-141-199-231-177-564-71-652 206-13 41-19 83-19 125z m249 302c-108-55-201-194-175-359 25-158 158-279 323-290 78-6 150 15 215 59 46 31 84 70 113 120-138-16-257 20-355 117-98 97-135 216-120 354z" horiz-adv-x="1000" />

<glyph glyph-name="help" unicode="&#xe837;" d="M472 805c19 0 38 0 57 0 15-2 30-4 45-6 79-14 151-45 212-96 87-72 142-163 162-274 3-17 4-34 7-50v-57c-1-3-2-5-2-7-5-71-25-137-62-197-72-117-176-190-312-216-17-3-33-4-50-7h-57c-2 0-4 2-6 2-78 6-151 30-216 74-107 73-173 173-197 300-3 17-5 34-7 51 0 19 0 38 0 57 1 11 2 22 4 34 14 99 56 185 126 256 68 69 150 112 246 129 16 3 33 5 50 7z m426-455c0 219-178 398-397 398-219 0-398-177-398-397-1-218 177-398 396-399 219-1 398 179 399 398z m-437-108c1 11 2 22 3 33 3 21 13 39 29 54 22 21 44 42 65 65 14 14 25 32 28 52 9 52-30 97-83 95-40-1-70-24-82-63-1-3-2-6-3-9-3-10-7-13-17-12-16 1-33 2-49 4-11 1-14 7-12 18 13 64 63 112 127 124 35 6 69 5 103-7 61-22 96-77 92-142-3-37-17-69-43-95-18-18-36-36-54-54-19-17-28-39-28-64 0-9 0-17 0-25 0-12-7-18-18-18-12 0-25 0-38 0-12 0-18 6-18 18 0 9 0 17 0 26 0 0 0 0-1 0z m-4-134c0 22 18 40 41 40 23 0 41-18 41-41 0-22-19-40-41-40-23 0-41 18-41 41z" horiz-adv-x="1000" />

<glyph glyph-name="check" unicode="&#xe838;" d="M76 331c1 3 3 6 4 8 19 42 76 50 108 15 40-46 81-91 122-137 15-16 29-32 44-49 1 1 2 2 2 4 151 166 302 332 453 497 15 16 33 25 55 24h1c5-1 10-2 15-3 0 0 1 0 2-1 25-9 41-31 43-57v-9l-3-14v-1c-2-10-9-18-15-25-140-154-280-308-419-462-28-30-56-60-83-91-12-12-26-20-44-22h-11l-15 2h-1c-11 4-20 11-28 20-30 33-59 65-88 98-41 46-83 93-124 139-10 11-16 24-17 39v11c1 5 2 10 3 15l-3-1z" horiz-adv-x="1000" />

<glyph glyph-name="reload" unicode="&#xe839;" d="M901 471v273l-102-102c-74 75-177 121-291 121-227 0-412-184-412-412s185-412 412-412 287 84 358 208l-84 48c-55-95-157-159-273-159-174 0-315 141-315 315s141 315 315 315 165-36 222-93l-102-102h273z" horiz-adv-x="1000" />

<glyph glyph-name="system" unicode="&#xe83a;" d="M31 599c0 104 67 198 166 231 9 3 17 3 24-4s7-14 4-23c-35-116 36-235 154-261 34-7 67-5 100 4 4 1 9 3 13 3 14-1 22-14 17-28-16-48-43-87-83-117-136-104-332-42-384 121-8 24-11 49-11 74h0z m146 178c-64-32-119-114-103-211 15-94 93-165 191-172 46-3 88 9 126 35 27 19 50 42 67 71-81-9-152 12-209 69-58 57-80 128-71 209h0z m802-526c-4 14-16 23-31 23h-94c-17 0-31-13-31-31 0-17 13-31 31-31h95c15 0 26 9 30 23 0 1 1 2 1 2h0v12c0 0-1 1-1 1z m-379-226c-15-2-27-15-27-32v-95c0-11 5-20 15-26 3-2 7-3 10-4h0c0 0 12 0 12 0 0 0 1 0 1 0 16 4 24 15 24 32v91c0 3 0 6-1 10-4 15-17 25-34 23z m100 378l-46-45c44-20 75-63 75-115s-55-125-125-125-95 31-115 75l-46-47c33-54 93-91 161-91 103 0 187 84 187 188s-37 127-91 160z m126 105c-5-4-10-9-14-14-18-17-36-35-54-53-9-10-11-21-6-34 4-12 16-19 32-19h0c5 0 12 3 18 9l67 67c12 12 12 31 0 44s-31 12-44 0z m-386-413c-12 5-25 3-34-7-23-22-45-45-68-67-6-6-9-13-9-20 0-15 8-26 19-31 12-5 25-3 34 6 23 23 45 46 68 68 5 6 9 13 9 21 0 12-7 24-19 29z m406-51c-15 15-29 30-45 45-12 12-31 12-43 0-12-12-13-31-1-43 23-23 45-47 69-69 9-10 21-11 34-6 12 5 18 15 19 27 0 10-3 17-10 24l-23 23z m33-46h0c0 0 0 0 0 0 0 0 0 0 0 0z m-7 680c3 2 6 5 8 9 12 16 13 33 2 40-10 8-28 3-43-12l-732-732c-10-10-16-21-15-32 0-4 1-7 2-10h0c0 1 7-6 7-6 0 0 1 0 1 0 13-5 28 0 43 15l81 82c0 0 1 1 2 1 0 0 0 0 0 0l156 157c0 0 1 1 2 1 0 0 0 0 0 0l105 106c0 0 1 1 2 1 0 0 0 0 0 0l297 298c0 0 1 1 2 1 0 0 0 0 0 0l81 81z" horiz-adv-x="1000" />

<glyph glyph-name="resize" unicode="&#xe83b;" d="M928 694c0-47-38-86-85-86-47 0-86 38-86 85 0 47 38 86 85 86 47 0 86-38 86-85z m-342-344c0-48-39-86-86-86-47 0-86 39-85 87 0 46 39 85 85 85 48 0 86-39 86-86z m257-85c-47 0-86 38-86 85 0 48 38 86 85 86 47 0 85-38 86-84 0-48-38-87-85-87z m-342-344c-48 0-86 38-86 86 0 48 38 86 86 86 46 0 85-39 85-85 0-48-38-87-86-87z m342 0c-47 0-86 38-86 86 0 47 39 86 86 86 47 0 85-39 85-85 0-48-38-87-85-87z m-600 86c0-48-38-86-86-86-47 0-85 39-85 87 0 46 39 85 86 85 47 0 85-39 85-86z" horiz-adv-x="1000" />

<glyph glyph-name="condition" unicode="&#xe83c;" d="M966 149c-2-15-10-28-20-39-15-15-33-29-54-35-45-15-86-3-120 28-31 28-50 66-66 104-3 6-3 16-9 17-5 1-8-8-12-13-15-21-32-41-50-59-20-19-42-33-68-39-28-6-54-1-74 21-20 21-23 57 0 80 10 11 22 16 36 17 15 0 29-5 40-17 5-6 8-4 13 0 26 26 48 56 68 87 6 10 12 19 19 28 3 3 3 6 2 11-6 25-12 49-17 74-3 12-4 13-16 13s-26-1-39 0c-38 3-77 0-115 2-10 0-20 1-30 2-6 0-8-2-10-8-13-52-26-104-39-157-9-37-17-74-28-110-10-36-26-70-45-103-18-32-43-60-71-82-32-25-67-43-106-50-27-4-55-6-82 5-4 2-8 5-12 8-1 0-2 1-2 1-24 19-30 42-20 69 7 18 22 29 41 33 7 2 16 5 21 3 9-3 18-2 28-3 25-3 50-5 76 0 16 3 22 16 27 29 16 40 24 83 35 124 12 45 22 90 34 135 9 33 16 67 24 101 0 2 2 3 0 6h-95c0 1 0 2-2 3 4 16 8 33 12 49 2 9 4 18 6 27 1 5 3 7 9 7 28 0 56 0 84 0 7 0 9 3 11 9 7 25 13 49 23 73 14 35 31 68 56 96 27 31 59 53 96 69 25 10 50 18 76 17 20 0 41-2 58-15 19-14 26-31 24-54-3-21-14-35-31-44-13-6-27-8-42-5-22 3-44 8-66 11-15 3-23-7-31-18-15-23-24-49-31-75-5-20-10-41-15-63 27 0 54-1 81 0 9 0 18 2 28 2 40 0 81 2 121 2 35 0 44-13 56-40 3-5 4-11 6-17 0-2-1-5 2-5 3 0 5 0 7 3 13 16 29 30 44 44 0 0 1 1 2 1 2 2 4 4 7 6 0 0 1 1 2 2 17 12 36 22 56 29 14 5 28 4 41 1 22-4 35-18 41-39 0-4 3-4 6-4v-2c-5-1-4-5-4-9 0-21-11-37-29-47-15-8-32-10-48-11-21-1-39-8-54-23-17-17-31-36-44-56-3-5-4-9-3-13 3-13 6-25 9-37 7-35 12-70 25-103 7-16 17-31 30-43 5-4 9-4 12 3 4 8 7 17 13 25 21 31 70 28 85-5 2-6 5-12 7-17v-17z m0 355c-2 0-5 0-5 4 2 0 3-1 5-2v-2z m-739-69c2 0 2-1 2-3-1 0-2 0-3 0 0 0 0 2 1 3z m596 82c-1 0-2-1-2-2 0 1 0 2 2 2z m-9-8c-1 0-2-1-2-1 0 1 0 2 2 1z m-756-573c1 0 2-1 2-1-1 0-2 0-2 1z" horiz-adv-x="1000" />

<glyph glyph-name="job" unicode="&#xe83d;" d="M884 606h-224v64c0 35-28 64-64 64h-192c-35 0-64-29-64-64v-64h-223c-36 0-64-29-64-64v-511c0-36 28-65 64-65h766c36 0 64 29 64 65v511c0 35-28 64-63 64z m-480 64h192v-64h-192v64z m480-128v-288h-767v288h767z m-767-511v159h766v-159h-766z m351 287h64c18 0 32 15 32 32s-14 32-32 32h-64c-17 0-32-14-32-32s15-32 32-32z" horiz-adv-x="1000" />

<glyph glyph-name="chart-bar-h" unicode="&#xe83e;" d="M668 341c32 0 63 0 93 0 31 0 46-15 46-46 0-94 0-189 0-283 0-4 0-7 0-11h60c-7 6-13 10-18 15-9 8-10 19-4 27 7 8 17 9 27 1 19-16 38-31 57-48 10-9 10-21 0-29-19-17-38-33-58-49-8-7-19-5-25 2-7 8-6 18 2 26 3 3 7 5 10 8 3 2 5 5 10 9-17 0-30 0-44 0-229 0-458 0-687 0-17 0-23 6-23 23 0 239 0 478 0 717 0 4 0 8 0 15-7-8-11-13-16-19-8-9-19-11-27-4-8 7-8 18-1 27 16 19 31 38 47 56 9 11 21 11 30 0 16-18 31-37 47-56 7-9 6-20-2-27-8-6-18-5-26 4-5 5-10 11-16 19v-717h63c0 3 0 7 0 11 0 117 0 235 0 352 0 5 0 9 0 14 1 21 16 38 37 39 34 1 67 1 101 0 22-1 37-18 38-42 0-45 0-90 0-135 0-3 0-6 0-10h103v12c0 99 0 198 0 297 0 35 22 50 48 49 28-1 56 0 84 0 28 0 44-16 44-44 0-63 0-127 0-190 0-4 0-7 0-12z m-37-341c0 5 0 9 0 13 0 70 0 140 0 210 0 106 0 212 0 317 0 9-2 12-11 12-27-1-53-1-80 0-9 0-12-2-12-12 0-176 0-352 0-528 0-4 0-7 0-11h103z m-279 0c0 3 0 5 0 7 0 121 0 242 0 363 0 8-3 11-11 10-27 0-54 0-81 0-9 0-12-2-12-11 0-107 0-214 0-322 0-15 0-31 0-47h103z m419 0c0 10 0 20 0 29 0 89 0 177 0 266 0 8-3 10-10 10-28 0-56 0-84 0-7 0-10-3-9-9 0-2 0-3 0-5 0-95 0-189 0-284 0-2 0-5 1-7h102z m-280 0c0 4 1 6 1 9 0 58 0 115 0 173 0 9-4 12-12 11-26 0-52 0-78 0-13 0-13 0-13-13 0-58 0-115 0-173 0-2 0-4 0-7h102z" horiz-adv-x="1000" />

<glyph glyph-name="save" unicode="&#xe83f;" d="M149 764h496c14 2 24-7 34-15 79-67 150-160 229-229l5-8c4-168 0-337 2-506-4-38-33-67-71-71h-688c-38 4-66 33-70 71v691c5 34 29 59 63 67z m43-63c-15-2-42 7-42-15l1-679c3-13 30-6 41-8v379c0 11 23 29 36 26h508c11 1 30-16 30-26v-379h76c6 0 10 12 9 18v470c0 0-214 214-214 214h-62v-166c0-9-20-27-31-25-103 6-214-7-316 0s-36 10-36 26v165z m319 0h-255v-128h255v128z m191-361h-446v-341h446v341z" horiz-adv-x="1000" />

<glyph glyph-name="editcolumns" unicode="&#xe840;" d="M900 784h-799c-19 0-35-15-35-34v-799c0-19 16-35 35-35h798c19 0 35 16 35 35v799c0 19-16 34-35 34z m-299-61v-746h-202v746h202z m-473-717v688c0 16 13 29 28 29h178v-746h-178c-16 0-28 13-28 29z m745 0c0-16-13-29-29-29h-177v746h177c16 0 29-13 29-29v-688z" horiz-adv-x="1000" />

<glyph glyph-name="settingsavm" unicode="&#xe841;" d="M618 316v178c0 10 0 20-2 30-13 100-113 168-211 145-82-19-137-88-137-175v-265c1-14 1-30 4-44 16-102 91-177 181-204-6 14-10 30-13 45-76 31-131 105-133 187-2 69 0 139 0 209s-1 59 0 89c4 71 72 130 143 125 76-6 130-64 130-140v-193c12 5 25 10 38 14z m-175 201c-12 0-18-9-18-26v-56c0-72-1-144 0-216 0-23 10-44 25-60 5 14 11 28 18 41-3 8-5 16-5 26v266c0 16-7 25-19 25z m-196 197c77 68 167 92 268 68 126-31 219-144 221-275 1-62 1-125 0-187 14-3 27-7 40-12 0 62 0 124 0 186s-1 35-4 51c-19 136-119 245-253 276-18 4-36 6-53 9h0c0-1-44-1-44-1-15-2-31-4-46-7-59-12-111-39-156-80-6-6-10-12-7-21 4-14 21-18 35-6z m10-615c-20 39-29 80-29 124s-8 21-19 21-18-9-18-21c0-13 1-27 2-40 18-141 124-255 263-283 15-3 31-5 46-7h11c-13 12-25 27-35 42-101 16-174 72-220 163z m428 226c4 0 8 0 12 0v39c0 45 1 89 0 133 0 19-2 40-6 59-35 150-189 235-334 181-95-35-151-106-163-206-6-50-3-100-3-150 0-8 5-14 12-17 13-5 26 5 26 21v112c0 14 1 27 3 41 20 118 139 198 256 172 101-23 170-109 170-213v-174c9 1 18 2 27 2z m-164-50c12 0 20 8 20 22 0 66 0 132 0 198-1 55-39 97-92 100-56 4-103-41-103-99v-265c0-9 1-18 2-27 6-57 40-105 87-131 0 0 0 1 0 1 0 15 1 29 3 42-33 26-54 65-54 111v269c0 43 40 71 78 58 25-9 40-31 40-59v-197c0-14 7-23 19-23z m-312 408h0c0 10-8 19-18 19s-20-8-20-19c0-10 8-19 19-19s19 8 19 19z m-18-379c0-11 8-19 18-19s19 8 19 18c1 10-8 19-18 19-11 1-19-8-19-18z m582-301c-22 12-45 7-63-10 0 0-1-1-1-1l-120 73c2 9 2 18-1 27l121 70s0 0 0 0c17-14 32-20 53-14 44 13 52 72 14 96-41 27-91-10-81-55l-123-71c0 0-1 1-1 1-31 25-78 9-87-30-11-50 47-85 87-53 0 1 2 2 3 3l121-74c-9-43 37-79 78-57 37 20 37 74 0 95z m-28 227c41 3 45-58 6-62-42-3-47 59-6 62z m-179-164c-8-21-36-26-52-11-16 17-9 46 13 52 25 7 47-16 38-41z m183-142c-40-2-44 58-6 62 44 5 48-60 6-62z" horiz-adv-x="1000" />

<glyph glyph-name="chart-doughnut" unicode="&#xe842;" d="M951 350c0-248-202-451-451-451-249 0-451 203-450 452 0 249 203 450 451 450 248-1 450-203 450-451z m-451 240c-132 0-240-108-240-240 0-132 108-239 241-239 131 0 239 108 239 239 0 133-108 241-240 240z m-281-218c12 138 122 248 260 260v126c-211-7-381-187-386-386h126z m688 0c-6 210-189 382-385 385v-126c145-14 249-127 259-259h126z m-386-430c215 8 382 191 386 386h-127c-6-69-33-128-82-177-49-48-108-75-177-82v-127z m-42 1v127c-62 6-115 28-161 66-30-30-60-60-90-89 68-66 173-104 251-104z m-387 386c6-97 41-181 104-251 30 30 60 60 90 90-39 46-61 100-67 161h-127z" horiz-adv-x="1000" />

<glyph glyph-name="chart-pie" unicode="&#xe843;" d="M491 801c-249-6-447-212-441-461 6-249 212-446 461-441 248 6 445 213 440 461-6 248-212 446-460 441z m40-858l-43-1c-195 0-382 162-394 377l-1 43c-2 78 33 184 97 253l31 33c69 65 151 102 248 110h43c199 0 383-166 395-377l-421-10c1-14 2-28 1-43l420 10c2-196-166-384-376-395z m-294 641m282-239c-11 9-22 18-33 27l-224-363c12-8 25-16 40-17l217 353z m-40 1c15-2 29-3 43-4l-11 426c-14 0-29 0-42-8l10-414z" horiz-adv-x="1000" />

<glyph glyph-name="populate" unicode="&#xe844;" d="M815-85h-323c-7 1-14 3-21 4-49 11-87 59-87 109v38c0 4-1 5-6 5-15 0-31-1-47 1-48 5-87 41-99 88-1 6-2 13-3 20v324c1 3 1 7 2 11 7 45 42 83 87 94 6 1 13 2 20 3h324c6-1 12-1 17-3 51-10 91-58 92-109v-37c0-5 1-6 5-6 16 0 32 1 47-1 49-5 88-40 99-87 2-7 3-14 4-20v-323c-1-4-1-8-2-12-7-48-45-87-91-96-6-1-12-2-17-3h0z m-354 272v-154c0-23 16-41 40-41h307c23 0 41 18 41 42v306c0 24-17 41-41 41h-307c-23 0-40-17-40-41 0-51 0-102 0-154z m232 271v38c0 24-17 40-40 40h-307c-4 0-8 0-11-1-18-5-29-20-29-39v-309c0-21 17-39 39-39h39v191c0 8 1 16 2 24 8 52 57 94 110 94h198l-1 1z m-468-215c4 0 18-4 44 0l6 74c-26 0-44 2-44 2h-40c-21 0-39 17-39 39v309c0 19 12 34 29 39 4 1 8 1 11 1h308c23 0 40-16 40-40v-38s2-54 2-79l78 1c0 26-3 79-3 83v37c0 52-41 100-92 110-5 1-11 2-17 3h-324c-7-1-14-2-20-4-45-10-80-49-87-94-1-3-1-7-2-11v-324c1-6 2-13 3-20 12-47 51-83 99-87 16-2 32-1 47-1z" horiz-adv-x="1000" />

<glyph glyph-name="chart-radar" unicode="&#xe845;" d="M532 528c15 18 32 26 54 23 30-5 50-31 47-61 0-6 1-8 5-11 47-25 94-51 140-77 5-2 7-2 11 1 19 17 45 19 66 6 20-12 30-36 25-60-5-24-25-41-50-43-6 0-8-2-9-7-27-82-53-164-80-246-1-5-1-8 3-11 20-18 25-47 12-69-13-23-40-34-65-26-25 7-41 31-39 58 0 6-2 9-7 12-71 33-142 66-213 100-5 2-9 2-13-2-17-16-41-20-61-10-21 9-34 30-33 52 2 24 14 42 36 50 6 3 8 5 8 11 0 98 0 196 0 294 0 6-1 9-7 11-27 10-41 37-35 65 6 26 31 45 57 43 28-2 50-23 52-51 0-6 3-9 8-11 30-13 59-27 89-41z m-97-385c76-36 152-72 228-107 14 16 32 22 53 21 28 86 55 171 83 256-2 2-4 3-6 5-17 13-25 31-22 53 1 6-1 8-6 11-46 25-92 50-137 76-2 1-4 2-6 3-1-1-2-2-3-2-18-18-41-23-63-14-22 10-34 30-34 56 0 2-2 6-5 7-12 6-24 12-37 17-17 8-33 16-47 22-12-9-21-17-32-23-6-3-8-6-8-12 0-58 0-116 0-174 0-40 0-80 0-120 0-3 2-8 5-9 29-14 41-33 37-66z m-55 463c-16 0-31-14-31-31 0-16 14-30 31-31 17 0 31 14 31 31 0 17-14 31-30 31z m446-213c-17 0-31-15-31-32 0-16 15-30 31-30 17 0 31 14 31 31 0 17-14 31-31 31z m-119-423c17 0 31 14 31 31 0 17-14 31-31 31-17 0-31-14-31-32 0-17 14-31 31-31z m-99 526c0 17-14 31-31 31-17 0-31-15-30-31 0-17 14-31 31-31 17 0 31 14 30 31z m-227-371c17 0 30 14 30 30 0 17-14 31-31 31-16 0-30-14-30-30 0-17 14-31 31-31z m119 631c62 0 123 0 185 0 29 0 50-12 64-37 62-107 123-214 185-320 14-25 14-50 0-75-35-60-69-120-104-179-1-3-2-5-4-7-5-4-10-5-16-2-5 4-7 9-5 15 1 2 3 5 4 8 34 59 68 118 102 177 11 17 11 34 0 52-61 105-122 211-183 317-10 18-25 26-45 26-123 0-245 0-367 0-20 0-34-8-44-25-61-106-123-213-184-320-10-16-10-32 0-48 61-106 122-212 183-319 11-18 26-27 47-27 97 0 195 0 292 0 4 0 7 0 11 0 6-1 9-6 9-12 0-7-3-11-10-12-2-1-5 0-8 0-99 0-198 0-297 0-29 0-50 12-64 37-62 107-123 214-185 320-14 25-14 50 0 74 62 107 124 214 185 321 14 24 36 36 64 36 61 0 123 0 185 0z m0-77c57 0 115 0 172 0 9 0 14-3 18-11 41-72 83-143 124-215 2-3 4-6 5-9 2-6 0-12-5-15-6-4-12-3-16 3-2 2-3 5-5 7-40 69-79 138-119 207-3 6-7 8-13 8-107 0-215 0-322 0-6 0-9-2-12-7-54-93-107-186-161-279-3-5-3-9 0-15 54-92 107-185 160-277 4-6 8-9 15-8 37 0 74 0 112 0 9 0 14-5 15-12 0-7-5-13-14-13-43 0-86 0-129 0-7 0-11 5-15 11-35 60-70 121-104 181-22 38-44 77-67 115-5 8-4 15 0 23 57 98 114 196 171 295 4 8 10 11 20 11 57 0 113 0 170 0z m-181-481c-2 3-7 6-10 11-26 44-51 89-77 133-9 15-9 25 0 40 26 43 50 87 76 130 1 3 3 5 4 8 5 7 12 9 18 5 6-4 8-11 4-18-8-15-17-30-25-44-18-31-36-63-55-94-3-5-3-9 0-14 25-43 49-85 74-128 2-3 4-6 6-8 6-9 0-20-14-21z m243 405c22 0 45 0 67 0 8 0 13-3 17-10 15-27 31-55 47-82 6-10 5-17-2-21-7-5-14-2-20 9-13 23-27 47-40 71-4 6-8 8-16 8-39 0-79 0-119 0-4 0-9 0-12 2-3 4-6 9-5 14 0 6 5 9 12 9 18 0 37 0 56 0 5 0 10 0 15 0z m-47-407c-24 0-48 0-71 0-10 0-16 4-16 12 0 8 6 13 16 13 43 0 86 0 129 0 7 0 10 2 13 7 24 42 48 84 72 126 6 9 4 16-6 21-17 10-35 19-53 28-7 4-11 9-8 17 2 7 10 10 17 6 21-11 43-20 63-33 9-6 13-20 19-30 1-2-1-7-3-9-29-51-58-101-87-151-3-6-8-7-15-7-23 0-47 0-71 0z m77-77c-21-4-45 4-68 16-15 8-30 15-45 22-10 4-13 10-10 18 4 7 11 9 21 4 23-10 46-21 69-32 4-2 8-3 12-3 16 0 31 0 46 0 6 0 9 2 12 7 35 61 71 122 106 183 1 1 2 3 2 4 5 9 12 12 19 8 7-4 8-11 3-20-38-66-76-131-114-197-4-7-9-10-17-10-10 0-20 0-36 0z" horiz-adv-x="1000" />

<glyph glyph-name="chart-polar" unicode="&#xe846;" d="M36 309c9 51 14 103 28 152 36 126 133 241 246 297 16-28 32-56 49-84 142 67 279 62 414-17-17-30-33-57-49-87 85-59 133-141 143-246h95c17-132-69-312-218-382-16 27-32 54-49 84-107-50-211-46-314 17 17 30 33 57 49 86-53 40-84 92-93 160-9 0-19 2-28 2-81 0-161 0-241 0-11 0-21 1-32 2 0 6 0 11 0 16z m263 402c-123-66-230-239-223-386h446c-75 131-149 259-223 386z m429-66c-119 56-233 56-352 0 59-102 117-202 176-305 60 104 117 203 176 305z m-146-356c60-104 117-203 174-302 100 55 191 216 172 302h-346z m-30-15c-42-74-83-145-126-218 86-39 168-39 252 0-42 73-82 143-126 218z m155 268c-43-74-83-144-125-216h251c-9 92-51 162-126 216z m-336-254c8-56 32-97 76-130 25 44 49 85 75 130h-151z" horiz-adv-x="1000" />

<glyph glyph-name="chart-venn" unicode="&#xe847;" d="M578 571l-188-71c5-9 8-19 12-29l186 70c-3 10-7 20-10 30z m44-337l-188-71c5-10 8-19 12-30l186 71c-3 10-7 20-10 29z m16 230l-281-103c5-9 9-19 12-29l279 103c-3 10-7 20-10 29z m19-114l-281-103c5-9 9-19 12-29l279 103c-3 10-7 20-10 29z m17 7c-4 182-155 326-336 322-182-4-327-155-322-336 4-182 155-325 336-321 181 4 325 155 321 336z m-308-286h-29c-134-1-263 110-271 258v29c-2 54 22 126 66 174l21 23c48 44 104 70 171 75h29c137 0 263-113 272-259v-29c1-135-114-264-258-271z m-213 450m832-164c-4 182-155 326-336 322-182-4-327-155-322-336 4-182 155-325 336-321 181 4 325 155 321 336z m-308-286h-29c-134-1-263 110-271 258v29c-2 54 22 126 66 174l21 23c48 44 104 70 171 75h29c137 0 263-113 272-259v-29c1-135-114-264-258-271z m-213 450" horiz-adv-x="1000" />

<glyph glyph-name="chart-semi-doughnut" unicode="&#xe848;" d="M261 132c0 133 107 241 239 241s240-108 240-240c0-6 0-11 0-16h210c0 5 0 10 0 15 0 248-201 451-449 451-249 1-452-201-452-450s0-11 0-16h211c0 5 0 10 0 15z m261 408c199-5 379-175 386-386h-126c-12 138-122 248-260 260v126z m-43 1v-127c-61-6-115-28-161-67l-90 90c70 63 154 98 251 104z m-386-387c0 78 38 183 104 251 29-30 59-60 89-90-38-46-60-99-66-161h-127z" horiz-adv-x="1000" />

<glyph glyph-name="chart-percentile" unicode="&#xe849;" d="M193 530v37c0 25 5 48 15 69 11 21 26 38 46 51 20 13 45 19 74 19s54-6 74-19c20-12 35-29 45-51 10-21 15-44 15-69v-37c0-25-5-48-16-69-10-21-25-38-45-51-20-13-45-19-74-19s-54 6-74 19c-20 12-35 29-45 51-11 21-16 44-16 69z m26-526l476 693h77l-476-693h-77z m43 563v-37c0-21 5-40 15-56 10-17 27-25 52-25s40 8 50 25c10 16 14 35 14 56v37c0 21-4 40-14 56-9 17-26 25-51 25s-40-8-51-25c-10-16-15-35-15-56z m276-433v36c0 26 5 49 16 70 10 21 26 38 46 51 20 12 44 19 73 19s54-7 74-19c20-13 35-30 45-51 10-21 15-45 15-70v-36c0-26-5-49-15-70s-26-38-46-51c-20-12-44-19-73-19s-54 7-74 19c-20 13-36 30-46 51-10 21-15 45-15 70z m69 36v-36c0-21 5-40 15-57 10-16 27-25 52-25s40 9 50 25c10 17 14 36 14 57v36c0 21-4 40-14 57-9 16-26 25-51 25s-40-9-51-25c-10-17-15-36-15-57z" horiz-adv-x="1000" />

<glyph glyph-name="chart-number" unicode="&#xe84a;" d="M328 480c-7 7-15 12-25 16-10 4-21 6-32 6s-21-2-31-6c-10-3-19-9-26-16-7-7-13-15-17-25-4-10-6-20-6-32s2-23 6-33c4-10 10-18 17-25 7-7 16-12 26-16 10-3 20-5 31-5s22 2 32 5c10 4 18 9 25 16 7 7 13 15 17 25 4 9 7 20 7 33s-2 23-7 32c-4 10-10 18-17 25z m-255 227v-714h396v714h-396z m320-314c-2-9-4-18-7-27-3-8-7-16-12-24-4-8-9-16-14-24l-99-157h-51l100 155-1 1c-7-4-15-7-25-9-9-2-18-2-25-2-16 0-31 3-45 8-14 6-26 14-36 24-10 11-18 23-23 37-6 14-9 30-9 48s3 34 10 49c6 14 15 26 26 36 11 10 25 18 40 23 15 6 31 8 49 8s34-2 49-8c15-5 28-13 39-23 11-10 20-22 27-36 6-15 9-31 9-49s-1-21-2-30z m393 87c-7 7-15 12-25 16-10 4-21 6-32 6s-21-2-31-6c-10-3-19-9-26-16-7-7-13-15-17-25-4-10-6-20-6-32s2-23 6-33c4-10 10-18 17-25 7-7 16-12 26-16 10-3 20-5 31-5s22 2 32 5c10 4 18 9 25 16 7 7 13 15 17 25 4 9 7 20 7 33s-2 23-7 32c-4 10-10 18-17 25z m-255 227v-714h396v714h-396z m320-314c-2-9-4-18-7-27-3-8-7-16-12-24-4-8-9-16-14-24l-99-157h-51l100 155-1 1c-7-4-15-7-25-9-9-2-18-2-25-2-16 0-31 3-45 8-14 6-26 14-36 24-10 11-18 23-23 37-6 14-9 30-9 48s3 34 10 49c6 14 15 26 26 36 11 10 25 18 40 23 15 6 31 8 49 8s34-2 49-8c15-5 28-13 39-23 11-10 20-22 27-36 6-15 9-31 9-49s-1-21-2-30z" horiz-adv-x="1000" />

<glyph glyph-name="chart-bar-v" unicode="&#xe84b;" d="M489 520v94c0 30-15 46-46 46h-295v60c6-7 11-13 16-19 7-8 18-10 26-3s9 17 2 26c-16 20-32 39-48 58-9 10-21 10-29 0-17-19-33-39-49-58-7-9-5-19 2-26s18-5 26 3c3 3 5 6 8 9 2 3 5 6 9 10v-731c0-17 6-23 23-23h731c-7-7-13-11-18-16-10-8-11-19-4-27 7-8 17-8 27-1 18 16 37 31 56 47 11 9 11 21 0 30-19 16-38 32-57 47-9 8-19 7-26-1-7-8-6-19 3-27 6-5 12-9 19-16h-717v63h377c22 1 39 16 39 38 1 33 1 67 0 100 0 23-18 38-41 38h-145v103h12c99 0 198 0 297 0 34 0 50 22 49 49-2 27 0 55 0 83s-16 44-44 44h-203z m-341-36h540c9 0 11-3 11-12 0-26 0-53 0-79 0-10-2-13-12-13h-539v103h0z m0-280h370c8 0 10-3 10-10v-82c0-8-2-11-11-11h-369v103z m0 419h294c8 0 11-2 10-10v-83c0-7-2-10-9-10h-288c-3 0-5 1-7 1v102z m0-279c3 0 6 0 9 0h172c10 0 12-4 12-12-1-26 0-52 0-78s0-13-14-13h-172c-2 0-5 0-7 0v102h0z" horiz-adv-x="1000" />

<glyph glyph-name="chart-line" unicode="&#xe84c;" d="M928-4h0c-18 17-37 32-56 48-9 7-20 6-27-2-6-8-5-18 4-26 5-5 11-10 19-17h-718v382c10 5 19 10 29 14 5 3 7 2 11-2 18-15 39-19 61-11 5 2 8 1 12-3 32-35 64-69 96-104 4-4 5-7 2-12-11-25-6-52 13-71s48-22 71-10c24 12 37 37 33 64-1 5 0 8 5 10 16 10 31 20 47 30 21 14 42 27 64 40 13-12 28-19 45-19s33 7 46 19c24-15 48-30 70-45-1-7-3-14-3-20-1-28 18-53 45-61 27-8 56 3 70 27 15 24 11 55-8 75-20 20-50 25-75 11h1c-5-3-8-3-12 0-22 14-43 27-65 41-5 3-7 5-6 11 1 37-27 65-62 65s-63-29-61-64c0-6-2-9-6-12-33-20-66-41-99-62-5-3-10-6-15-9-18 15-38 19-60 12-6-2-9 0-13 3-31 35-63 69-95 103-5 5-5 9-3 16 10 24 5 47-13 66-18 19-41 24-66 15-24-9-38-28-39-54 0-12-4-17-14-21-2 0-4-1-6-2v296c6-7 11-13 16-19 8-8 19-10 27-3 8 6 9 17 1 26-16 20-31 39-48 58-8 10-20 10-29 0-16-19-32-39-48-58-7-9-6-19 2-26s18-5 25 3c3 3 6 6 8 9 3 3 5 6 9 10v-731c0-17 7-23 24-23h731c-8-7-13-11-19-16-9-8-11-19-4-27 7-8 18-8 27-1 19 16 38 31 56 47 11 9 11 21 0 30z m-112 289c14 0 26-12 26-26h0c0-14-12-26-26-26s-26 12-26 24 11 28 26 28z m-177 109c15 0 27-12 27-26s-12-26-26-26h0c-14 0-26 12-25 26 0 14 12 27 25 26z m-220-131c14 0 25-13 24-27-1-15-13-26-27-25h0c-13 0-26 13-25 25 0 16 12 27 27 27z m-189 203c15 0 26-12 26-26 0-15-12-26-26-26-14 0-26 12-26 26s12 26 26 26z" horiz-adv-x="1000" />

<glyph glyph-name="user" unicode="&#xe84d;" d="M500 713c-105 0-190-86-190-191s85-191 190-191 191 85 191 191-85 191-191 191z m0-325c-74 0-134 60-134 134s60 134 134 134 134-60 134-134-60-134-134-134z m344-401v39c0 148-120 267-268 267h-152c-148 0-268-119-268-267v-39h68v39c0 105 91 203 196 203l155 0c106 0 201-98 201-203v-39h68z" horiz-adv-x="1000" />

<glyph glyph-name="not-see" unicode="&#xe84e;" d="M76 822c10-7 21-13 29-22 107-106 214-213 321-320 107-107 213-214 320-321 68-68 136-136 204-204 8-9 14-20 21-29v-17c-5-16-15-26-31-31h-17c-9 7-20 13-28 21-54 52-106 106-159 159-3 3-4 6-6 9-6-4-9-6-12-8-95-55-195-77-304-54-84 18-156 61-219 118-69 62-125 135-168 218v18c45 88 105 163 181 229-4 2-7 4-9 7-50 50-101 100-151 151-8 8-14 19-21 28 0 6 0 11 0 17 5 16 16 26 32 31 5 0 11 0 16 0z m187-292c-59-50-108-108-148-175-1-3-1-7 1-10 47-79 106-149 182-202 85-59 177-82 280-57 33 8 64 20 94 37-3 3-5 5-7 7-28 28-56 56-84 84-73-42-149-22-192 20-25 23-40 52-46 85-8 40 0 77 20 111-33 33-67 67-100 100z m160-160c-11-28 0-63 24-83 21-18 55-24 72-14-32 32-64 64-96 96z m549-29c-26-49-56-95-92-138-11-15-26-21-44-15-27 8-36 40-18 63 21 29 41 59 63 88 6 8 5 15 0 24-47 75-103 142-176 193-52 37-109 62-173 68-34 4-68 2-101-6-23-5-42 4-50 23-8 22 4 47 28 53 39 9 78 12 119 9 97-7 181-47 256-108 75-62 135-138 182-223 2-4 4-8 6-12v-19z" horiz-adv-x="1000" />

<glyph glyph-name="see" unicode="&#xe84f;" d="M473 702c18 0 36 0 55 0 14-2 29-4 43-7 80-14 150-51 212-103 78-64 139-143 185-232v-19c-2-3-3-7-5-11-51-92-115-172-199-236-55-42-116-72-184-86-17-4-35-6-52-9h-55c-3 1-5 2-7 2-21 4-43 6-63 11-80 20-147 61-207 116-68 61-123 133-164 214 0 6 0 12 0 18 2 5 4 9 6 13 45 82 102 154 173 215 61 52 130 90 209 106 17 4 35 6 53 9z m41-625c53 0 114 20 170 56 84 54 146 128 198 212 1 3 1 9 0 11-8 13-16 26-25 39-47 69-103 129-175 174-50 32-104 51-164 54-70 4-134-14-193-50-88-54-153-130-206-218-2-2-2-8 0-10 47-79 105-149 182-202 60-41 125-66 214-66z m142 273c0-86-70-156-156-156-86 0-156 70-156 156 0 87 70 157 157 156 86 0 155-69 155-156z m-155 78c-43 0-78-35-79-77 0-43 36-79 79-79 42 0 78 36 78 78 0 43-35 78-78 79z" horiz-adv-x="1000" />

<glyph glyph-name="dependency-mac" unicode="&#xe850;" d="M896 660h-792c-33 0-60-27-60-60v-499c0-33 27-60 60-60h792c33 0 60 27 60 60v499c0 33-27 60-60 60z m15-545c0-20-16-36-36-36h-750c-20 0-36 16-36 36v471c0 19 16 35 36 35h747c21 0 39-17 39-38v-468z m-501 370v-270h-48v158l-35-105h-26l-34 104v-156h-48v269h48l47-142 48 142h48z m142-218h-63l-11-52h-50l69 269h47l69-269h-50l-11 52z m-8 43l-23 110-22-110h45z m104-78c-13 13-20 32-20 57v122c0 25 7 45 21 58 15 13 33 19 57 19s40-6 54-19c14-13 21-33 21-60v-8h-48v8c0 12-3 22-8 27-5 6-12 9-20 9s-18-3-22-10c-5-7-7-18-7-32v-108c0-26 9-39 29-39s15 3 20 9c5 6 8 15 8 26v7h47v-7c0-26-7-46-21-59-15-13-33-20-56-20s-41 7-55 20z" horiz-adv-x="1000" />

<glyph glyph-name="dependency-ip" unicode="&#xe851;" d="M896 808h-792c-33 0-60-27-60-60v-795c0-33 27-60 60-60h792c33 0 60 27 60 60v795c0 33-27 60-60 60z m15-842c0-19-16-35-36-35h-750c-20 0-36 16-36 35v767c0 20 16 36 36 36h747c21 0 39-17 39-38v-764h0z m-537 217v334h64v-334h-64z m91 0v334h88c18 0 33-4 44-13 11-8 18-20 23-35 4-15 7-33 7-54s-2-38-6-53c-4-15-11-26-21-35-10-8-25-12-43-12h-27v-132h-66z m65 192h4c13 0 20 4 23 11 3 7 4 17 4 30s-1 23-4 30c-2 7-9 10-19 10h-7v-81z" horiz-adv-x="1000" />

<glyph glyph-name="dependency-tags" unicode="&#xe852;" d="M900 668v-239c-3-12-5-24-8-36-7-22-23-53-38-71l-350-349c-7-6-19-13-27-16s-19-3-28-7h-9c-9 4-18 3-28 7s-20 10-28 17l-261 261c-12 13-17 30-22 47 0 8-1 17 0 24 2 16 13 36 23 48l348 347c91 78 233 37 344 47 41-4 79-40 84-80z m-306 25c-29-3-63-16-85-34l-343-342c-11-13-12-32 0-45l255-254c11-10 31-13 43-3l346 346c16 18 29 49 31 73 6 76-3 160-1 236-5 14-16 22-31 23-69-4-146 7-215 0z m64-62c139 17 174-183 45-218-156-41-197 200-45 218z m4-52c-74-11-59-127 18-117 77 9 62 130-18 117z" horiz-adv-x="1000" />

<glyph glyph-name="dependency-installed-software" unicode="&#xe853;" d="M603 142c2-33 9-66 21-98 2-5 13-33 16-36s2-1 4-1c33-4 85 13 98-30 3-12 7-49-9-53h-465c-7 2-11 8-11 15s0 26 1 33 9 20 15 25c22 18 62 7 88 10 21 42 34 88 36 135h-308c-15 0-36 24-35 40v554c2 22 19 38 41 40h810c19 0 34-12 40-29 4-189 1-380 2-569-1-15-21-36-36-36h-308z m315 102v492c0 7-12 12-18 12h-798c-7 1-21-5-21-13v-491h837z m0-28h-836v-33c0-7 10-14 17-13h809c3 2 10 8 10 10v36h0z m-343-74h-148c-4-4-1-11-2-17-4-41-16-81-32-118h216c-20 42-32 88-33 135z m-289-190h428l2 2c1 17-4 24-21 25h-394c-17-2-16-13-16-27h0z m441 708v-130h-28v42h-392v-56h168v-28h-168v-126h168v-28h-185c-3 0-10 6-11 10v312c0 8 6 14 13 14h422c7 0 11-5 13-11h0z m-28-18h-393v-42h393v42z m-94-336c-94 8-137 125-70 192 67 67 184 24 191-70v-19l-3-19c-11-39-41-69-80-79l-19-4c-7 0-13 0-19 0h0z m2 196c-52-5-87-56-73-107 17-64 101-82 144-32 50 57 4 145-71 139h0z m40-46l19-20-58-58c-5-2-10-2-15 0l-29 30 19 20 19-18 45 46h0z" horiz-adv-x="1000" />

<glyph glyph-name="dependency-domain" unicode="&#xe854;" d="M925 651c-10 38-45 66-84 70h-681c-40-4-76-34-84-74-3-15-2-14-2-37v-545c4-45 40-82 86-85h679c46 3 83 40 86 86v546s-1 27-1 39z m-517-41h185v-519h-185v519z m-37-593h-210c-24 0-50 29-49 52v564c0 22 27 51 48 51h211v-667z m469 0h-432v37h412c15 0 32 19 32 34v522c2 16-16 37-32 37h-412v37h433c22 0 48-30 48-52v-561c1-24-25-54-49-54z m-210 74v519h185v-519h-185z m-296 370v-407h-186v407h185z m-37-37h-111v-333h111v333z m37 223v-111h-186v111h185z m-37-37h-111v-37h111v37z m196-38c68 8 88-90 23-108-77-22-99 99-23 108z m4-37c-23-3-18-40 7-36s18 40-7 36z m218 37c68 8 88-90 23-108s-99 99-23 108z m4-37c-23-3-19-40 7-36s19 40-7 36z" horiz-adv-x="1000" />

<glyph glyph-name="dependency-device" unicode="&#xe855;" d="M959 166h-73v443c0 10-19 28-30 26h-414c0 0-1 0-2 0h-297c-11 0-29-16-29-26v-443h-72c-9 0-12-15-12-22 2-41 37-75 77-79h782c41 1 79 36 81 77 0 7-2 24-12 24z m-811 436h705v-436h-705v436z m739-504h-778c-17 2-37 16-41 34h365c3-3-2-15 18-17 21-2 83-3 103 0 15 2 12 16 14 16h365c-4-19-26-33-45-33z m-392 470c-19-4-15-38 10-32 19 4 15 38-10 32z" horiz-adv-x="1000" />

<glyph glyph-name="severity-critical" unicode="&#xe856;" d="M916 574v-448c0-10-6-20-15-26l-387-223c-9-5-20-5-30 0l-386 223c-9 6-15 15-15 26v449c0 10 6 20 15 26l387 221c9 6 20 6 29 0l387-222c10-5 15-15 15-26h0z m-104-26l-296 171c-9 6-21 6-30 0l-296-170c-9-6-15-15-15-26v-345c0-10 5-20 14-26l296-171c9-5 21-5 30 0l310 179 2 4v358c0 11-6 21-15 26h0z" horiz-adv-x="1000" />

<glyph glyph-name="dependency-octo-vul" unicode="&#xe857;" d="M620 38c12 13 24 25 36 36 6 6 12 10 21 9 18-1 25-16 16-35-2-4-6-8-9-11-16-16-32-31-47-47-9-9-24-9-34 0-18 19-36 37-54 55-14 14-29 27-43 41-15 16-30 32-46 47-9 10-17 20-26 30-2 1-4 2-6 2h-131c-1 0-2 0-3-1v-69c0-6 2-8 7-9 21-7 38-19 50-39 16-25 19-52 10-80-18-57-85-81-137-50-45 26-57 86-32 129 12 20 31 34 53 41 6 1 5 4 5 8v87c0 20 7 27 27 27h122c-10 21-21 41-30 62-5 10-9 20-12 30-2 5-4 6-9 6h-144c-5 0-7-1-9-6-5-20-17-38-35-50-10-7-21-11-33-13-37-8-70 2-94 33-25 33-27 69-7 105 26 47 94 61 137 28 16-12 27-28 33-46 1-3 5-7 7-7h138c1 0 1 0 2 1-10 39-12 79-11 120h-109c-18 0-26 8-26 26v102c0 7-1 10-8 12-58 20-78 83-53 133 20 40 70 59 112 44 33-11 54-34 62-68 10-49-16-94-61-109-6-2-8-4-8-10v-85h90c0 11 1 21 0 32-2 18 7 27 21 35 50 26 100 53 149 79 34 18 67 36 100 54 14 7 26 8 39 0 28-16 56-31 85-46 47-25 95-51 143-76 11-6 24-11 34-18 6-3 9-9 9-16 1-36 0-72 0-109s-11-19-22-19-21 9-21 21v77c0 9-3 16-14 20-31 16-61 33-92 49-44 24-88 48-133 72-5 3-12 3-17 0-41-23-82-44-124-67-35-19-70-38-106-56-6-3-9-7-8-15 1-40 0-80 3-121 5-63 26-122 59-177 17-26 35-51 56-74 14-15 29-28 44-42 26-26 51-51 77-77 2-2 4-4 7-8m-348-87c25 0 49 24 49 49 0 26-24 51-50 51-29-1-49-25-49-62s29-38 50-38m-165 431c-26 2-49-19-51-45-2-29 25-51 45-53 26-3 53 23 53 46 1 27-20 50-47 52m109 274c26-1 49 21 50 47 0 27-21 51-49 51-25 1-48-22-50-47-1-27 20-50 47-51h1m664-496c27-26 53-53 80-79l23-23c8-9 9-26 1-34s-24-7-33 2c-35 34-69 69-103 103-52-36-109-49-170-33-51 12-90 40-118 84-56 85-38 193 29 256 85 78 209 68 280-4 71-72 80-188 11-271m-154-27c84 0 154 68 157 151 2 86-67 160-155 161-85 0-156-69-157-155 0-86 70-156 155-158m115 166c0-10-2-19-11-24-9-5-18-4-25 2-4 4-8 11-8 17 1 32-39 63-67 64-8 0-16 0-23 7-6 7-8 15-5 24 4 9 11 15 20 14 16-2 32-3 46-9 36-15 61-41 70-80 1-5 1-10 2-15" horiz-adv-x="1000" />

<glyph glyph-name="dependency-cve" unicode="&#xe858;" d="M123 164l-65 70 1 261 65 41 249-2 132-276 135 278h296l6-6v-79h-240c-44-80-71-170-110-253s-12-27-15-30c-10-9-140-4-149 5l-112 264c-3 5-19 14-22 14h-144l-6-7v-188l6-7h160v-85h-187z m774 229v-85h-105c-13 0-18-47-5-54h148l7-7v-76l-7-7h-229l-6 7v222h197z" horiz-adv-x="1000" />

<glyph glyph-name="minus" unicode="&#xe859;" d="M591 420h261c51 0 84-48 66-95-11-28-36-45-70-45h-257c-6 0-355 0-442 0s-83 46-68 92c10 30 36 48 70 48h257c7 0 177 0 183 0z" horiz-adv-x="1000" />

<glyph glyph-name="screen-center" unicode="&#xe85a;" d="M487 571c182 10 299-194 195-346-91-133-290-126-373 12-84 142 13 324 177 333z m366 132h-161c-1 0-6 2-7 3-6 4-8 9-9 15-1 13-1 44 0 56s7 13 14 15h210c22-2 39-19 41-40v-213c-2-6-8-11-15-12-12-2-46-2-58 0s-11 4-14 9-2 6-2 7v160z m0-706v162c0 1 2 5 3 7 4 5 9 8 15 8 13 1 42 2 55 0s13-5 15-12c2-70 0-141 1-211-2-23-18-40-41-42h-212c-7 2-12 8-13 15-1 12-1 46 0 58s5 11 10 14 6 2 6 2h161z m-706 706v-161c0-1-2-6-3-7-3-6-9-8-15-9-12-1-43-1-55 0s-13 7-15 14v211c1 22 19 39 41 41h210c7-2 12-7 13-14-1-19 2-39 0-57s-4-12-9-15-6-2-7-2h-160z m0-706h160c0 0 4-2 5-2 7-2 11-8 12-15 1-12 1-45 0-57s-7-12-13-15h-211c-22 1-40 19-42 41v210c3 7 8 13 16 14 12 1 43 1 55 0s14-5 16-12 2-5 2-5v-160z" horiz-adv-x="1000" />

<glyph glyph-name="severity-high" unicode="&#xe85b;" d="M494 807c25 2 46-8 65-23s2-2 3-3l369-369c1-1 2-2 3-3 33-40 30-83-4-121-47-54-108-106-159-157s-105-108-158-161c-47-46-95-110-166-59s-3 3-4 4l-379 380c-1 1-1 2-2 2-24 30-25 75-1 105 24 30 2 2 2 3l382 382c2 1 3 2 4 3 13 10 29 16 45 17z m-20-112l-319-320c-14-14-14-36 0-50l321-320c14-14 36-14 50 0l319 321c14 14 14 36 0 50l-321 320c-14 14-36 13-50 0h0z" horiz-adv-x="1000" />

<glyph glyph-name="csv" unicode="&#xe85c;" d="M913 559h-128c-41 0-78 44-81 83s2 87 0 130c4 20 25 32 44 22 72-60 143-122 215-183 4-4 7-9 9-15 2-203 0-407 1-610-4-44-39-80-84-84h-549c-43 3-80 40-83 83-3 47 54 48 59 11s0-7 0-11c3-13 15-23 28-23h540c12-1 28 14 28 25v572h0z m-51 60l-98 84v-59c0-9 15-25 24-25h74z m-524 178h280c35-5 35-54 0-59h-274c-15-2-26-13-28-28v-277c-6-35-55-34-59 1v282c4 42 38 77 81 81z m-157-496v-29l-48-3v27c0 26-10 37-28 37s-28-11-28-33v-178c0-21 10-33 28-33s28 12 28 38v36l48-2v-39c0-50-29-79-77-79s-76 29-76 79v179c0 49 28 78 76 78s77-29 77-78h0z m175 4v-9l-48-5v10c0 23-8 33-25 33s-25-8-25-27v-7c0-18 10-33 42-62 44-41 58-67 58-105v-16c0-48-30-73-75-73s-77 26-77 74v22l48 4v-22c0-22 10-33 28-33s27 8 27 31v10c0 21-10 36-42 65-44 40-58 67-58 102v8c0 48 28 73 73 73s74-26 74-74v1z m69-256l-55 326h50l37-249h1l37 249h49l-55-326h-64z" horiz-adv-x="1000" />

<glyph glyph-name="severity-low" unicode="&#xe85d;" d="M500 777c-235 0-426-191-426-427s191-427 426-427 427 192 427 427-191 427-427 427z m0-761c-184 0-334 150-334 334s150 334 334 334 334-149 334-334-149-334-334-334z" horiz-adv-x="1000" />

<glyph glyph-name="severity-medium" unicode="&#xe85e;" d="M496 627c52 3 83-43 116-75 114-110 228-222 342-332 50-59 10-145-65-147h-776c-59 0-102 56-85 112 10 33 53 66 78 91 113 111 227 222 341 333 16 9 31 17 50 18h-1z m-2-93c-2 0-4-2-5-3l-342-332c-13-15-1-35 18-34h673c16 0 27 18 16 32l-340 333c-5 5-13 6-21 4z" horiz-adv-x="1000" />

<glyph glyph-name="pdf" unicode="&#xe85f;" d="M913 559h-128c-41 0-78 44-81 83s2 87 0 130c4 20 25 32 44 22 72-60 143-122 215-183 4-4 7-9 9-15 2-203 0-407 1-610-4-44-39-80-84-84h-549c-43 3-80 40-83 83-3 47 54 48 59 11s0-7 1-11c2-13 15-23 28-23h539c12-1 29 14 29 25v572z m-51 60l-98 84v-59c0-9 15-25 24-25h73z m-524 178h280c35-5 35-54 0-59h-274c-15-2-26-13-28-28v-277c-6-35-55-34-59 1v282c4 42 38 77 81 81z m-236-420c55 0 84-30 84-85v-27c0-55-30-85-84-85h-23v-139h-51v337h73z m-23-150h20c25 0 36 13 36 42v20c0 28-11 41-36 41h-20v-103z m218 150c55 0 84-30 84-85v-166c0-56-30-85-84-85h-73v337h73z m-22-289h20c24 0 35 13 35 41v160c0 29-11 42-35 42h-20v-243z m207 242v-95h72v-47h-72v-148h-51v337h141v-47h-90z" horiz-adv-x="1000" />

<glyph glyph-name="xlsx" unicode="&#xe860;" d="M913 559h-128c-41 0-78 44-81 83s2 87 0 130c4 20 25 32 44 22 72-60 143-122 215-183 4-4 7-9 9-15 2-203 0-407 1-610-4-44-39-80-84-84h-549c-43 3-80 40-83 83-3 47 54 48 59 11s0-7 0-11c3-13 15-23 28-23h540c12-1 28 14 28 25v572h0z m-51 60l-98 84v-59c0-9 15-25 24-25h74z m-524 178h280c35-5 35-54 0-59h-274c-15-2-26-13-28-28v-277c-6-35-55-34-59 1v282c4 42 38 77 81 81z m-15048 5736c285 0 440-155 440-443v-140c0-287-155-442-440-442h-118v-725h-265v1750h383z m-118-780h108c127 0 185 67 185 215v105c0 147-58 215-185 215h-108v-535z m1133 780c285 0 440-155 440-443v-865c0-287-155-442-440-442h-380v1750h380z m-115-1505h105c127 0 185 67 185 215v830c0 147-58 215-185 215h-105v-1260z m1077 1260v-495h375v-245h-375v-765h-265v1750h733v-245h-468z m12944-6240h-52l-41 115h-1l-38-115h-51l62 169-59 158h53l36-104h1l35 104h52l-59-159 62-168z m163 47v-47h-132v327h50v-280h82z m166 210v-10l-48-4v10c0 23-8 33-25 33s-25-8-25-27v-7c0-18 10-33 42-62 44-41 59-67 59-105v-16c0-48-31-74-76-74s-76 27-76 75v21l47 5v-23c0-22 11-32 28-32s27 8 27 31v11c0 20-9 35-41 65-44 40-59 67-59 102v8c0 48 28 74 74 74s74-27 74-75z m192-257h-53l-40 115h-1l-39-115h-51l62 169-59 158h53l36-104h1l35 104h52l-59-159 62-168z" horiz-adv-x="1000" />

</font>
</defs>
</svg>
